<?xml version="1.0" standalone="no"?>
<!DOCTYPE svg PUBLIC "-//W3C//DTD SVG 1.1//EN" "http://www.w3.org/Graphics/SVG/1.1/DTD/svg11.dtd" >
<svg xmlns="http://www.w3.org/2000/svg">
    <metadata>Created by iconfont</metadata>
    <defs>
        <font id="awsui-iconfont" horiz-adv-x="1024">
            <font-face
                    font-family="awsui-iconfont"
                    font-weight="400"
                    font-stretch="normal"
                    units-per-em="1024"
                    ascent="896"
                    descent="-128"
            />
            <missing-glyph/>

            <glyph glyph-name="jilu" unicode="&#59778;"
                   d="M828.40625 805.875a105.46875 105.46875 0 0 0 105.46875-105.46875v-300.90234375a35.15625027 35.15625027 0 0 0-70.31249973 0V524.62500027H160.43749973v-457.03125027c0-18.52734348 14.32617215-33.71484348 32.53710937-35.05078152L195.59375 32.43749973000001h276.01171875a35.15625027 35.15625027 0 0 0 0-70.31249973H195.59375a105.46875 105.46875 0 0 0-105.46875 105.46875V700.40625a105.46875 105.46875 0 0 0 105.46875 105.46875h632.8125z m-89.50781223-445.90429715c27.43945285 0 54.1230466-5.83593777 78.66210883-16.98046875a35.15625027 35.15625027 0 0 0-29.03906195-64.0371091 119.56640598 119.56640598 0 0 1-49.62304688 10.70507812c-67.5 0-122.48437527-56.00390625-122.48437527-125.40234375 0-69.3984375 55.00195313-125.40234375 122.48437527-125.40234375 67.5 0 122.48437527 56.00390625 122.48437446 125.40234375a35.15625027 35.15625027 0 1 0 70.31250054 0c0-107.94726563-86.16796875-195.71484348-192.796875-195.71484347-106.6113284 0-192.796875 87.76757785-192.796875 195.71484347 0 107.92968777 86.1855466 195.71484348 192.796875 195.71484348zM381.41210965 243.37499973a35.15625027 35.15625027 0 0 0 0-70.31249973H265.90624973a35.15625027 35.15625027 0 0 0 0 70.31249973h115.50585992zM529.57812473 419.15625027a35.15625027 35.15625027 0 0 0 0-70.31250054H265.90624973a35.15625027 35.15625027 0 0 0 0 70.31250054h263.671875zM828.40625 735.56250027H195.59375a35.15625027 35.15625027 0 0 1-35.15625027-35.15625027v-105.46875h703.12500054V700.40625a35.15625027 35.15625027 0 0 1-32.53710937 35.06835938L828.40625 735.56250027z"
                   horiz-adv-x="1024"/>

            <glyph glyph-name="fuzhi2" unicode="&#59776;"
                   d="M814.30057718 137.25064912000005a46.9762048 46.9762048 0 0 0 0 93.9524096 45.42275888 45.42275888 0 0 1 45.42275887 45.42275888V683.75292587a45.42275888 45.42275888 0 0 1-45.42275887 45.42275888H407.17346892a45.42275888 45.42275888 0 0 1-45.42275887-45.42275888 46.9762048 46.9762048 0 1 0-93.9524096 0 139.68585765 139.68585765 0 0 0 139.37516847 139.37516848h407.12710826a139.68585765 139.68585765 0 0 0 139.37516847-139.37516848v-407.12710827a139.68585765 139.68585765 0 0 0-139.37516847-139.37516848zM606.01454743-66.37504285H216.09962003a147.01812243 147.01812243 0 0 0-147.20453594 147.20453595v391.46837333a147.01812243 147.01812243 0 0 0 147.20453594 147.26667378h389.9149274a147.01812243 147.01812243 0 0 0 147.20453595-147.20453594v-391.46837334c1.55344592-81.46270435-65.74183158-147.26667378-147.20453595-147.26667378zM216.09962003 525.61213061a52.81716148 52.81716148 0 0 1-53.25212634-53.25212634v-391.46837334a52.81716148 52.81716148 0 0 1 53.25212634-53.25212634h389.9149274a52.81716148 52.81716148 0 0 1 53.25212635 53.25212634v391.46837334a52.81716148 52.81716148 0 0 1-53.25212635 53.25212634z"
                   horiz-adv-x="1024"/>

            <glyph glyph-name="guanbi" unicode="&#59775;"
                   d="M703.488 560.128c-10.24 10.24-27.648 10.24-37.888 0L520.192 414.72 373.76 560.128c-10.24 10.24-27.648 10.24-37.888 0s-10.24-27.648 0-37.888L481.28 375.808 335.872 230.4c-10.24-10.24-10.24-27.648 0-37.888s27.648-10.24 37.888 0l145.408 145.408L665.6 192.512c10.24-10.24 27.648-10.24 37.888 0s10.24 27.648 0 37.888L558.08 375.808l145.408 145.408c11.264 11.264 11.264 28.672 0 38.912zM517.12 841.728C262.144 841.728 54.272 633.856 54.272 378.88s207.872-462.848 462.848-462.848 462.848 207.872 462.848 462.848S772.096 841.728 517.12 841.728z m0-872.448c-226.304 0-410.624 184.32-410.624 410.624s184.32 410.624 410.624 410.624 410.624-184.32 410.624-410.624c-1.024-227.328-184.32-410.624-410.624-410.624z"
                   horiz-adv-x="1024"/>

            <glyph glyph-name="kongbaibiaodan" unicode="&#59771;"
                   d="M819.74272 823.785813H297.30816c-37.075627 0-67.40992-30.779733-67.40992-68.4032H605.713067l214.029653-215.46496v-502.75328c37.075627 0 67.40992 30.78144 67.40992 68.4032V755.382613c0 37.620053-30.334293 68.4032-67.40992 68.4032zM205.180587 730.663253c-37.077333 0-67.411627-30.779733-67.411627-68.401493v-649.816747c0-37.62176 30.334293-68.4032 67.411627-68.4032h524.117333c25.279147 0 47.187627 15.392427 57.299627 35.91168 5.055147 10.26048 8.425813 20.52096 8.425813 32.49152V662.26176c0 37.62176-30.334293 68.4032-67.40992 68.4032H205.180587z m75.835733-162.45248h337.05472c18.537813 0 33.70496-15.39072 33.70496-34.2016 0-18.81088-15.167147-34.2016-33.706667-34.2016H281.018027c-18.537813 0-33.70496 15.39072-33.70496 34.2016 0 18.81088 15.167147 34.2016 33.706666 34.2016zM247.313067 397.20448c0 18.81088 15.167147 34.2016 33.706666 34.2016h202.231467c18.537813 0 33.706667-15.39072 33.706667-34.2016 0-18.809173-15.168853-34.2016-33.706667-34.2016H281.01632c-18.537813 0-33.70496 15.392427-33.70496 34.2016z m355.592533-200.07424l-35.391147-34.2016-32.018773-32.49152-23.594667-23.939413-11.79648-11.97056c-3.370667-3.42016-6.741333-6.84032-10.112-8.5504l-10.112-5.13024c-5.055147-1.71008-8.425813-5.13024-13.482666-5.13024-6.741333-1.71008-13.482667-5.13024-21.906774-6.84032-8.42752-1.71008-15.168853-5.13024-23.594666-6.84032-5.055147-1.71008-11.79648-3.42016-16.853334-3.42016-5.055147-1.71008-11.79648 0-15.167146 1.71008-3.370667 3.42016-5.055147 10.26048-3.370667 15.39072 0 3.42016 1.686187 10.26048 3.370667 17.1008 5.056853 17.1008 10.112 32.489813 15.167146 47.880533 1.686187 6.84032 5.056853 11.97056 6.741334 17.1008 1.686187 3.42016 3.370667 8.5504 6.741333 11.97056 3.370667 3.42016 5.056853 6.84032 8.425813 10.26048l10.112 10.26048 23.594667 22.23104c8.425813 8.5504 20.224 18.809173 30.334293 30.779733l35.391147 34.2016 38.760107 39.330134 80.892586-80.372054-42.130773-39.330133z m97.74592 107.731627c-1.686187-5.13024-3.370667-8.5504-6.741333-11.97056-3.370667-3.42016-6.741333-6.838613-10.112-11.968854l-11.79648-11.97056-79.2064 80.372054 6.741333 6.84032 6.739627 6.84032 8.425813 8.5504c3.370667 3.418453 6.741333 5.128533 10.112 6.838613 3.370667 1.71008 6.741333 1.71008 11.79648 1.71008 3.370667 0 6.741333 0 10.112-1.71008 3.370667 0 6.741333-1.71008 8.425813-3.42016 8.42752-3.418453 16.853333-10.258773 25.279147-17.1008 6.741333-5.128533 11.798187-11.968853 16.853333-20.519253 1.68448-3.42016 3.370667-6.84032 3.370667-10.26048 1.68448-3.42016 1.68448-8.5504 1.68448-11.97056 0-1.71008 0-6.84032-1.68448-10.26048z"
                   horiz-adv-x="1024"/>

            <glyph glyph-name="wendang1" unicode="&#59773;"
                   d="M860.378453 634.88H163.621547C124.317013 634.88 92.16 601.258667 92.16 560.165547v-522.99776C92.16-3.925333 124.31872-37.546667 163.621547-37.546667h696.756906c39.304533 0 71.461547 33.621333 71.461547 74.714454V560.165547C931.84 601.258667 899.68128 634.88 860.378453 634.88zM276.1728 541.487787h41.091413l87.540054-224.141654h-39.304534L344.064 373.38112h-94.685867l-21.440853-56.034987h-37.517653l85.75488 224.141654z m530.60608-485.640534H217.219413c-14.293333 0-26.799787 13.074773-26.799786 28.018347 0 14.941867 12.506453 28.01664 26.799786 28.01664h589.561174c14.293333 0 26.799787-13.073067 26.799786-28.01664s-12.506453-28.018347-26.799786-28.018347z m0 130.74944H217.219413c-14.293333 0-26.799787 13.074773-26.799786 28.018347 0 14.941867 12.506453 28.01664 26.799786 28.01664h589.561174c14.293333 0 26.799787-13.073067 26.799786-28.01664s-12.506453-28.018347-26.799786-28.018347z m-8.932693 130.74944H512c-19.65056 0-35.729067 16.810667-35.729067 37.357227s16.0768 37.357227 35.730774 37.357227h285.8496c19.65056 0 35.729067-16.810667 35.729066-37.358934 0-20.544853-16.0768-37.35552-35.730773-37.35552zM296.106667 515.413333L259.413333 418.133333h73.386667zM235.127467 730.960213h503.104853c39.529813 0 71.872853-34.536107 71.872853-76.7488v-19.18464H163.25632V654.21312C163.25632 696.4224 195.597653 730.960213 235.129173 730.960213zM308.66944 803.84H689.732267c39.918933 0 72.582827-32.768 72.582826-72.818347H236.08832S268.7488 803.84 308.671147 803.84z"
                   horiz-adv-x="1024"/>

            <glyph glyph-name="HTML" unicode="&#59774;"
                   d="M764.055893 701.44H159.249067C123.188907 701.44 93.866667 672.119467 93.866667 636.055893V31.249067C93.866667-4.811093 123.1872-34.133333 159.250773-34.133333H764.0576c36.061867 0 65.384107 29.320533 65.384107 65.384106V636.0576c0 36.164267-29.320533 65.384107-65.384107 65.384107zM505.378133 228.118187l-95.522133-95.522134c-21.9648-21.9648-51.18464-34.121387-82.34496-34.121386-31.158613 0-60.276053 12.054187-82.343253 34.121386-21.9648 21.9648-34.121387 51.182933-34.121387 82.343254 0 31.05792 12.054187 60.276053 34.121387 82.343253l78.462293 78.462293c12.76928 12.76928 33.508693 12.76928 46.27968 0 12.76928-12.770987 12.76928-33.5104 0-46.27968l-78.462293-78.462293c-9.603413-9.603413-14.916267-22.4768-14.916267-36.061867 0-13.58848 5.312853-26.461867 14.916267-36.06528 9.603413-9.603413 22.4768-14.916267 36.063573-14.916266 13.58848 0 26.46016 5.312853 36.063573 14.916266l95.522134 95.522134c17.368747 17.368747 19.92192 44.6464 6.130346 64.77312-10.216107 14.916267-6.43584 35.24608 8.480427 45.462186 14.916267 10.216107 35.24608 6.434133 45.462187-8.480426 31.568213-46.17728 25.745067-108.496213-13.791574-148.03456z m172.654934 142.006613l-78.462294-78.460587c-12.76928-12.770987-33.508693-12.770987-46.27968 0-12.76928 12.770987-12.76928 33.5104 0 46.27968l78.462294 78.460587c9.603413 9.603413 14.916267 22.4768 14.916266 36.063573 0 13.58848-5.312853 26.46016-14.916266 36.063574-19.92192 19.92192-52.206933 19.92192-72.127147 0l-95.522133-95.522134c-17.368747-17.36704-19.92192-44.644693-6.130347-64.771413 10.216107-14.916267 6.43584-35.24608-8.47872-45.462187a32.267947 32.267947 0 0 0-18.389333-5.720746 32.72192 32.72192 0 0 0-26.97216 14.199466c-31.568213 46.178987-25.745067 108.39552 13.791573 147.933867l95.522133 95.522133c45.361493 45.359787 119.22432 45.359787 164.585814 0 21.9648-21.9648 34.121387-51.182933 34.121386-82.343253 0-31.05792-12.156587-60.276053-34.121386-82.24256zM864.749227 802.133333H259.9424C223.88224 802.133333 194.56 772.8128 194.56 736.749227v-16.346454h588.458667c36.063573 0 65.384107-29.320533 65.384106-65.384106V66.56h16.346454c36.061867 0 65.384107 29.320533 65.384106 65.384107V736.750933C930.133333 772.913493 900.8128 802.133333 864.749227 802.133333z"
                   horiz-adv-x="1024"/>

            <glyph glyph-name="shujuyuanxinjian" unicode="&#59772;"
                   d="M512.832853 457.386667C718.537387 457.386667 884.053333 534.961493 884.053333 629.737813c0.063147 17.6384-5.410133 34.74432-15.476053 48.354987-4.64896 6.908587-9.29792 12.066133-13.94688 18.97472a42.42432 42.42432 0 0 1-9.255253 8.61184 88.77056 88.77056 0 0 1-12.397227 10.361173c-3.078827 1.70496-6.198613 5.18144-9.29792 6.908587-6.196907 5.18144-13.904213 8.61184-20.082347 13.815467-13.945173 8.61184-30.993067 15.542613-47.93344 24.086186a438.678187 438.678187 0 0 1-55.785813 18.973014c-12.39552 3.47648-26.26048 6.90688-40.226133 10.361173A715.629227 715.629227 0 0 1 549.981867 803.84a270.194347 270.194347 0 0 0-37.189974-1.703253 295.0144 295.0144 0 0 1-38.637226-1.774934 714.422613 714.422613 0 0 1-109.81376-13.81376c-14.00832-3.4304-27.830613-5.137067-40.185174-8.567466a513.629867 513.629867 0 0 1-54.11328-17.245867c-17.024-6.90688-30.99136-13.815467-44.875093-20.724053-4.64896-3.4304-10.827093-6.90688-15.433387-10.361174-14.076587-9.035093-27.077973-20.00384-38.700373-32.651946-7.113387-7.765333-13.356373-16.464213-18.594133-25.903787-7.087787-12.342613-10.832213-26.7008-10.786134-41.355947C141.653333 534.915413 307.170987 457.386667 512.832853 457.386667zM512.832853 377.053867C367.479467 377.053867 222.088533 413.457067 141.653333 482.986667v-105.9328C141.653333 286.042453 307.170987 211.626667 512.832853 211.626667S884.053333 286.08512 884.053333 377.053867V482.986667c-80.4352-69.5296-225.826133-105.9328-371.22048-105.9328z m-262.935893-66.148694c-17.11616 0-30.993067 14.84288-30.993067 33.152 0 18.30912 13.876907 33.152 30.993067 33.152 17.117867 0 30.993067-14.84288 30.993067-33.152 0-18.30912-13.8752-33.152-30.993067-33.152zM512.812373 129.5872c-145.344853 0-290.730667 36.4032-371.15904 105.9328v-122.441387h1.549654C161.79712 28.673707 319.494827-35.84 512.832853-35.84c193.33632 0 351.076693 64.513707 369.629867 148.918613H884.053333v122.397014c-80.43008-69.486933-225.814187-105.88672-371.2-105.88672h-0.04096zM249.890133 63.484587c-17.11616 0-30.99136 14.84288-30.99136 33.152 0 18.30912 13.8752 33.152 30.99136 33.152 17.114453 0 30.989653-14.84288 30.989654-33.152 0-18.30912-13.8752-33.152-30.989654-33.152z"
                   horiz-adv-x="1024"/>

            <glyph glyph-name="guize" unicode="&#59770;"
                   d="M697.936842 6.736842H326.063158c-51.2 0-94.315789 43.115789-94.31579 94.31579v24.252631c0 24.252632 8.084211 45.810526 24.252632 61.978948C164.378947 262.736842 107.789474 373.221053 107.789474 497.178947 107.789474 718.147368 288.336842 896 512 896s404.210526-177.852632 404.210526-398.821053c0-123.957895-56.589474-234.442105-148.210526-309.894736 16.168421-16.168421 24.252632-37.726316 24.252632-61.978948v-24.252631c0-51.2-43.115789-94.315789-94.31579-94.31579z m0 80.842105c8.084211 0 13.473684 5.389474 13.473684 13.473685v24.252631c0 2.694737 0 5.389474-2.694737 8.084211l-56.589473 64.673684 67.368421 53.894737c75.452632 59.284211 118.568421 150.905263 118.568421 245.221052C835.368421 672.336842 689.852632 815.157895 512 815.157895S188.631579 672.336842 188.631579 497.178947c0-94.315789 43.115789-185.936842 118.568421-245.221052l67.368421-53.894737-56.589474-64.673684c-2.694737-2.694737-2.694737-5.389474-2.694736-8.084211v-24.252631c0-8.084211 5.389474-13.473684 13.473684-13.473685h369.178947zM256-47.157895h512c21.557895 0 40.421053-18.863158 40.421053-40.421052s-18.863158-40.421053-40.421053-40.421053h-512c-21.557895 0-40.421053 18.863158-40.421053 40.421053S234.442105-47.157895 256-47.157895zM700.631579 410.947368c0-21.557895-18.863158-40.421053-40.421053-40.421052S619.789474 389.389474 619.789474 410.947368c0 118.568421-97.010526 215.578947-215.578948 215.578948-21.557895 0-40.421053 18.863158-40.421052 40.421052S382.652632 707.368421 404.210526 707.368421c164.378947 0 296.421053-132.042105 296.421053-296.421053z"
                   horiz-adv-x="1024"/>

            <glyph glyph-name="zitibiaoti" unicode="&#60548;" d="M736 800v-384H288V800H192v-864h96V352h448v-416h96V800z"
                   horiz-adv-x="1024"/>

            <glyph glyph-name="suoxiao1" unicode="&#59766;"
                   d="M411.741091 337.454545a34.909091 34.909091 0 0 0 34.909091-34.90909v-272.104728a34.909091 34.909091 0 1 0-69.818182 0v187.810909L106.146909-52.433455a34.792727 34.792727 0 0 0-24.669091-10.216727 34.909091 34.909091 0 0 0-24.692363 59.578182L327.493818 267.636364H139.636364a34.909091 34.909091 0 1 0 0 69.818181h272.104727z m487.330909 501.76a34.909091 34.909091 0 1 0 49.338182-49.338181L677.748364 519.168h187.857454a34.909091 34.909091 0 1 0 0-69.818182H593.454545a34.909091 34.909091 0 0 0-34.90909 34.909091V756.363636a34.909091 34.909091 0 1 0 69.818181 0v-187.810909L899.072 839.214545z"
                   horiz-adv-x="1024"/>

            <glyph glyph-name="fangda2" unicode="&#59769;"
                   d="M184 106.912L389.309 312.22a8 8 0 0 0 11.313 0l39.598-39.598a8 8 0 0 0 0-11.313L234.912 56H384c8.837 0 16-7.163 16-16v-48a8 8 0 0 0-8-8H144c-17.673 0-32 14.327-32 32V264a8 8 0 0 0 8 8h48c8.837 0 16-7.163 16-16v-149.088z m656 554.422L634.569 455.902a8 8 0 0 0-11.314 0L583.657 495.5a8 8 0 0 0 0 11.314L788.843 712H640c-8.837 0-16 7.163-16 16v48a8 8 0 0 0 8 8h248c17.673 0 32-14.327 32-32v-248a8 8 0 0 0-8-8h-48c-8.837 0-16 7.163-16 16V661.334z"
                   horiz-adv-x="1024"/>

            <glyph glyph-name="icon-test3" unicode="&#59768;"
                   d="M860.4 632.9H163.6c-54.8 0-99.6-44.8-99.6-99.6v-298.7c0-54.8 44.8-99.6 99.6-99.6h696.9c54.8 0 99.6 44.8 99.6 99.6V533.3c-0.1 54.8-44.9 99.6-99.7 99.6ZM359.2 268.4h-41.9L206.8 438.3c-2.8 4.3-5.1 8.8-6.9 13.4h-1c0.9-4.9 1.3-15.5 1.3-31.8v-151.5h-37.1V499.6h44.7l106.7-165.9c4.5-6.9 7.4-11.6 8.7-14.2h0.6c-1.1 6.1-1.6 16.5-1.6 31.1v149h36.9v-231.2Zm168.3 0H397.7V499.6h124.6V467H436v-65.4h79.5v-32.4H436v-68.4h91.4v-32.4Zm270 0h-43.4l-44 161.7c-1.8 6.9-3 14.4-3.4 22.6h-0.6c-0.5-7.6-1.8-15-3.9-22.2l-44.2-162h-44.3L549 499.7h42.1L633 330.4c1.7-7.1 2.8-14.5 3.2-22.2h0.8c0.4 5.5 1.9 12.9 4.5 22.2L689 499.6h39.5L772.4 329c1.5-5.8 2.6-12.7 3.4-20.6h0.6c0.3 5.4 1.6 12.5 3.7 21.3l41.1 169.9h39.7l-63.4-231.2Z"
                   horiz-adv-x="1024"/>

            <glyph glyph-name="yule" unicode="&#59767;"
                   d="M700.330667 162.56c11.498667-16.042667 29.418667-33.024 53.546666-33.024H853.333333v-65.386667h-124.864s-56.149333 14.293333-88.32 49.216A318.506667 318.506667 0 0 0 469.333333 64c-176.725333 0-320 143.274667-320 320 0 176.725333 143.274667 320 320 320 176.725333 0 320-143.274667 320-320a318.933333 318.933333 0 0 0-89.002666-221.44zM469.333333 490.666667a64 64 0 1 1 0 128 64 64 0 0 1 0-128z m0-341.333334a64 64 0 1 1 0 128 64 64 0 0 1 0-128z m-170.666666 170.666667a64 64 0 1 1 0 128 64 64 0 0 1 0-128z m341.333333 0a64 64 0 1 1 0 128 64 64 0 0 1 0-128z"
                   horiz-adv-x="1024"/>

            <glyph glyph-name="bianjibiaoge" unicode="&#60092;"
                   d="M522.97702756 798.25224651l295.15472593-295.15472592-398.71778847-398.71778726H124.2592391v295.15472592L522.97702756 798.25224651zM222.64414815 363.28738725000005v-155.34459259h155.34459259l284.79842015 295.15472593-139.81013333 144.98828682L222.64414815 363.28738725000005z m-103.56306133-310.68918519h155.34459259v-103.56306131H119.08108682v103.56306131z m207.12612265 0h258.90765513v-103.56306131H326.20720947v103.56306131z m310.68918518 0h310.68918519v-103.56306131h-310.68918519v103.56306131z"
                   horiz-adv-x="1024"/>

            <glyph glyph-name="gantetu" unicode="&#59765;"
                   d="M256 128h640v-128H256zM896-32H256a32 32 0 0 0-32 32v128a32 32 0 0 0 32 32h640a32 32 0 0 0 32-32v-128a32 32 0 0 0-32-32zM288 32h576v64H288zM128 448h512v-128H128zM640 288H128a32 32 0 0 0-32 32v128a32 32 0 0 0 32 32h512a32 32 0 0 0 32-32v-128a32 32 0 0 0-32-32zM160 352h448v64H160zM512 768h384v-128H512zM896 608H512a32 32 0 0 0-32 32V768a32 32 0 0 0 32 32h384a32 32 0 0 0 32-32v-128a32 32 0 0 0-32-32zM544 672h320V736H544z"
                   horiz-adv-x="1024"/>

            <glyph glyph-name="danjuguanli" unicode="&#59757;"
                   d="M85.333333 810.453333A85.525333 85.525333 0 0 0 170.666667 896h682.666666c47.146667 0 85.333333-38.272 85.333334-85.546667V-128l-160.64 106.666667-135.125334-106.666667-129.813333 106.666667-132.458667-106.666667-138.624 106.666667L85.333333-128V810.453333z m85.333334-63.765333V16.64l92.672 79.658667 117.290666-91.690667 132.458667 91.690667 129.813333-91.690667 113.792 91.690667L853.333333 16.64V746.666667A64 64 0 0 1 789.418667 810.666667H234.581333A63.850667 63.850667 0 0 1 170.666667 746.688zM256 640c0 23.573333 19.136 42.666667 42.773333 42.666667h426.453334c23.616 0 42.773333-18.944 42.773333-42.666667 0-23.573333-19.136-42.666667-42.773333-42.666667h-426.453334A42.624 42.624 0 0 0 256 640z m0-192c0 23.573333 19.136 42.666667 42.773333 42.666667h426.453334c23.616 0 42.773333-18.944 42.773333-42.666667 0-23.573333-19.136-42.666667-42.773333-42.666667h-426.453334A42.624 42.624 0 0 0 256 448z m0-192c0 23.573333 19.136 42.666667 42.773333 42.666667h426.453334c23.616 0 42.773333-18.944 42.773333-42.666667 0-23.573333-19.136-42.666667-42.773333-42.666667h-426.453334A42.624 42.624 0 0 0 256 256z"
                   horiz-adv-x="1024"/>

            <glyph glyph-name="bujufangshi" unicode="&#59758;"
                   d="M781.6875634 687.3549414199999h-134.81782686c-9.30425926 0-17.23413778-3.30246827-23.84896177-9.87774171-6.57033009-6.62471144-9.87774172-14.53975915-9.87774172-23.83907432v-134.81782685c0-9.32897824 3.31235572-17.27863241 9.87774172-23.83907432 6.61482398-6.61482398 14.54470252-9.89751734 23.84896176-9.89751734h134.81782686c9.30920334 0 17.25391343 3.28269263 23.82424351 9.89751734 6.62471144 6.56044191 9.90740481 14.51009607 9.90740479 23.8440184V653.63812539c0 9.29437179-3.28269263 17.21930624-9.90740479 23.83907432-6.57527345 6.57527345-14.51504016 9.87774172-23.8242435 9.87774171M646.84996163 754.78857422h134.81782685c27.89300285 0 51.74690871-9.87774172 71.50239213-29.63322515C872.92566404 705.39986564 882.78363013 681.57067879 882.78363013 653.6579010400001v-134.81288351c0-27.91277775-9.8579668-51.75679616-29.61344952-71.51227958-19.75548343-19.75054006-43.60938928-29.62828178-71.50239213-29.62828105h-134.81782685c-27.93255338 0-51.75185207 9.87774172-71.50733549 29.62828105-19.75548343 19.75548343-29.63322515 43.60444593-29.63322588 71.51227958V653.6579010400001c0 27.91277775 9.87774172 51.74196462 29.63322588 71.49744803C595.10305292 744.9108325 618.91246488 754.78857422 646.84996163 754.78857422m134.83760176-471.90688826h-134.81782685c-9.30425926 0-17.23413778-3.32718727-23.84896178-9.87774173-6.57033009-6.63459962-9.87774172-14.56447815-9.87774171-23.86379331v-134.81288278c0-9.30920334 3.31235572-17.27368832 9.87774171-23.82918685 6.61482398-6.61482398 14.54470252-9.90246071 23.84896177-9.90246143h134.81782686c9.30920334 0 17.25391343 3.28763673 23.82424351 9.89751734 6.62471144 6.56044191 9.90740481 14.52492761 9.90740479 23.83413094v134.81288278c0 9.29931517-3.28269263 17.22919442-9.90740479 23.86379331-6.57527345 6.55055444-14.51504016 9.87774172-23.8242435 9.87774173M646.84996163 350.28565566h134.81782685c27.89300285 0 51.74690871-9.87774172 71.50239213-29.6282818 19.75548343-19.75548343 29.61345024-43.56983876 29.61344952-71.50239139v-134.81288351c0-27.88805875-9.8579668-51.74196462-29.61344952-71.49744803-19.75548343-19.75548343-43.60938928-29.63322515-71.50239213-29.63322515h-134.81782685c-27.93255338 0-51.75185207 9.87774172-71.50733549 29.63322515-19.75548343 19.75548343-29.63322515 43.60444593-29.63322588 71.49744803v134.81288351c0 27.93255338 9.87774172 51.74690871 29.63322588 71.5023914 19.75548343 19.75054006 43.56983876 29.62828178 71.50733549 29.62828179m-269.66037272 337.06928576H242.3569305c-9.30920334 0-17.22919442-3.31235572-23.85390585-9.88268507-6.55055444-6.62471144-9.87774172-14.53975915-9.87774171-23.83907432v-539.31085797c0-9.30920334 3.32718727-17.27368832 9.87774171-23.82918686 6.62471144-6.61482398 14.54470252-9.90246071 23.85390586-9.90246071h134.8326584c9.30920334 0 17.25391343 3.28763673 23.82424279 9.89751661 6.62471144 6.56044191 9.89751734 14.52492761 9.89751734 23.83413096V653.63812539c0 9.29437179-3.27774927 17.21930624-9.89751734 23.83907432-6.57527345 6.57527345-14.51504016 9.87774172-23.82918687 9.87774171M242.34209896 754.78857422h134.83265842c27.90289029 0 51.73702053-9.87774172 71.48756059-29.63322515 19.76042752-19.75548343 29.63816923-43.5846703 29.63816923-71.49744803v-539.31085798c0-27.88805875-9.87774172-51.74196462-29.63322515-71.49744805-19.75548343-19.75548343-43.58961439-29.63322515-71.49250468-29.63322514H242.3371556c-27.92266521 0-51.75679616 9.87774172-71.50239213 29.63322514C151.07928004 62.60507844999995 141.21142578 86.45404022000002 141.21142578 114.34704306000003V653.6579010400001C141.21142578 681.57067879 151.07928004 705.39986564 170.83476348 725.15534907 190.58035945 744.9108325 214.41448967 754.78857422 242.3371556 754.78857422"
                   horiz-adv-x="1024"/>

            <glyph glyph-name="zhuyaorenyuan" unicode="&#59759;"
                   d="M889.46710513 598.6381578400001h-44.40789487v59.21052621a103.61842108 103.61842108 0 0 1-103.61842107 103.61842108H238.15131595a103.61842108 103.61842108 0 0 1-103.61842108-103.61842108v-518.09210541a103.61842108 103.61842108 0 0 1 103.61842108-103.61842107h118.42105243v-44.40789404h384.86842081-503.28947324C156.39638135-8.269736480000006 90.125 58.00164486999995 90.125 139.75657864000004V657.84868405C90.125 739.60361865 156.39638135 805.875 238.15131595 805.875h503.28947324c81.7549346 0 148.02631595-66.27138135 148.02631594-148.02631595v-59.21052621zM867.26315811 576.2713819a22.20394702 22.20394702 0 1 0 0 44.40789403 22.20394702 22.20394702 0 0 0 0-44.40789404zM230.75000027 583.83552649h236.84210486a22.20394702 22.20394702 0 0 0 0-44.40789487h-236.84210486a22.20394702 22.20394702 0 0 0 0 44.40789487zM230.75000027 391.40131568h177.63157864a22.20394702 22.20394702 0 0 0 0-44.40789488h-177.63157864a22.20394702 22.20394702 0 0 0 0 44.40789488zM356.57236838-8.269736480000006a22.20394702 22.20394702 0 1 0 0 44.40789405 22.20394702 22.20394702 0 0 0 0-44.40789404zM726.63815784 213.76973703c-98.09703973 0-177.63157864 79.53453974-177.63157865 177.63157865s79.53453974 177.63157864 177.63157865 177.63157946 177.63157864-79.53453974 177.63157864-177.63157946-79.53453974-177.63157864-177.63157864-177.63157865z m0 44.40789486a133.2236846 133.2236846 0 1 1 0 266.44736838 133.2236846 133.2236846 0 0 1 0-266.44736837zM475.42269758-8.269736480000006c-0.29605243 4.88486838-0.42927593 9.82894758-0.42927678 14.80263135 0 138.98190757 112.66282864 251.64473703 251.64473704 251.64473702s251.64473703-112.66282864 251.64473703-251.64473702c0-4.9736846-0.14802622-9.91776297-0.42927676-14.80263135h-44.49671027c0.34046054 4.88486838 0.51809216 9.82894758 0.51809216 14.80263135 0 114.45394757-92.78289458 207.23684216-207.23684216 207.23684216s-207.23684216-92.78289458-207.23684216-207.23684216c0-4.9736846 0.17763162-9.91776297 0.51809216-14.80263135H475.43750027zM497.19736865-30.207236469999998a22.20394702 22.20394702 0 1 1 0 44.40789404 22.20394702 22.20394702 0 0 1 0-44.40789404zM956.07894703-30.47368431999996a22.20394702 22.20394702 0 1 1 0 44.40789486 22.20394702 22.20394702 0 0 1 0-44.40789486z"
                   horiz-adv-x="1077"/>

            <glyph glyph-name="erweima" unicode="&#59760;"
                   d="M399.872 735.744v-256h-256v256h256m0 64h-256c-35.328 0-64-28.672-64-64v-256c0-35.328 28.672-64 64-64h256c35.328 0 64 28.672 64 64v256c0 35.328-28.672 64-64 64z m480.256-64v-256h-256v256h256m0 64h-256c-35.328 0-64-28.672-64-64v-256c0-35.328 28.672-64 64-64h256c35.328 0 64 28.672 64 64v256c0 35.328-28.672 64-64 64z m-480.256-512v-256h-256v256h256m0 64h-256c-35.328 0-64-28.672-64-64v-256c0-35.328 28.672-64 64-64h256c35.328 0 64 28.672 64 64v256c0 35.328-28.672 64-64 64z m192-351.744c-19.456 0-32.256 12.8-32.256 32.256v256c0 19.456 12.8 32.256 32.256 32.256s32.256-12.8 32.256-32.256v-256c0-16.384-15.872-32.256-32.256-32.256z m157.184 0c-19.456 0-32.256 12.8-32.256 32.256v256c0 19.456 12.8 32.256 32.256 32.256s32.256-12.8 32.256-32.256v-256c-0.512-16.384-16.384-32.256-32.256-32.256z m162.816 0c-19.456 0-32.256 12.8-32.256 32.256v256c0 19.456 12.8 32.256 32.256 32.256s32.256-12.8 32.256-32.256v-256c0-16.384-15.872-32.256-32.256-32.256z"
                   horiz-adv-x="1024"/>

            <glyph glyph-name="shenfenzheng" unicode="&#59761;"
                   d="M916.96 767.12H107.5c-59.18 0-107.5-45.06-107.5-100.24v-567.52c0-55.19 48.32-100.24 107.5-100.24h809.46c59.18 0 107.5 45.06 107.5 100.24V666.88c0 55.18-48.32 100.24-107.5 100.24zM961.64 130c0-45.56-13.18-63-65-63H128.64c-51.82 0-64 20.44-64 66V629c0 45.56 12.18 72 64 72h768c51.82 0 65-17.44 65-63v-508zM410.61 368.56c29.73 25.27 48.96 62.42 48.96 104.37 0 75.88-61.74 137.62-137.62 137.62S184.34 548.81 184.34 472.93c0-41.95 19.26-79.1 48.99-104.37-61.7-32.15-104.04-96.62-104.04-170.87 0-15.2 12.33-27.53 27.53-27.53s27.52 12.33 27.52 27.53c0 75.88 61.74 137.62 137.62 137.62s137.62-61.74 137.62-137.62c0-15.2 12.33-27.53 27.53-27.53 15.2 0 27.53 12.33 27.53 27.53-0.01 74.25-42.32 138.71-104.03 170.87z m-88.66 21.8c-45.58 0.05-82.51 36.99-82.57 82.57 0 45.6 36.97 82.57 82.57 82.57 45.6 0 82.57-36.96 82.57-82.57 0.01-45.61-36.96-82.57-82.57-82.57zM896.64 526.8c0-15.7-11.21-28.44-25.03-28.44H571.25c-13.82 0-25.03 12.73-25.03 28.44 0 15.7 11.2 28.43 25.03 28.43h300.35c13.83 0.01 25.04-12.72 25.04-28.43z m-25.03-142.17c0-15.7-11.2-28.43-25.03-28.43H571.25c-13.82 0-25.03 12.73-25.03 28.43s11.2 28.44 25.03 28.44h275.32c13.83 0 25.04-12.74 25.04-28.44z m-75.09-142.16c0-15.7-11.21-28.44-25.03-28.44H571.25c-13.82 0-25.03 12.73-25.03 28.44 0 15.7 11.21 28.43 25.03 28.43h200.23c13.83 0 25.04-12.73 25.04-28.43z"
                   horiz-adv-x="1024"/>

            <glyph glyph-name="suffix-url" unicode="&#59762;"
                   d="M938.666667 42.666667v-85.333334H682.666667V384h85.333333v-341.333333z m-85.333334 519.253333V426.666667h85.333334v170.666666L725.333333 810.666667H85.333333v-384h85.333334V725.333333h519.253333zM599.04 162.346667L640-42.666667h-85.333333l-34.133334 170.666667H469.333333v-170.666667h-85.333333V384h128a128 128 0 0 0 87.04-221.653333zM512 213.333333a42.666667 42.666667 0 0 1 0 85.333334h-42.666667v-85.333334z m-256 170.666667v-298.666667a42.666667 42.666667 0 0 0-85.333333 0V384H85.333333v-298.666667a128 128 0 0 1 256 0V384z"
                   horiz-adv-x="1024"/>

            <glyph glyph-name="icon__yeqiancaozuo" unicode="&#59763;"
                   d="M983.04 0H40.96v757.76h437.0432l137.0112-187.5968H983.04z m-860.16 81.92h778.24V488.2432H573.44L436.4288 675.5328H122.88zM762.1632 590.5408H645.9392l-119.0912 166.912h116.3264l118.9888-166.912zM766.8736 757.4528l118.9888-166.912h-74.1376l-118.9888 166.912M863.8464 757.4528l118.9888-166.912h-46.592l-118.9888 166.912"
                   horiz-adv-x="1024"/>

            <glyph glyph-name="shuxingtu" unicode="&#59764;"
                   d="M438.272-55.296c-4.096 1.024-5.632 2.048-6.656 2.56-0.512 5.12-1.024 23.04 0.512 84.992l0.512 10.752H261.12c-5.632 0.512-15.36 2.56-15.36 25.088 0 2.048 0 3.584-0.512 5.632V604.672h-0.512v24.064H69.12c-6.656 0-13.824 1.536-15.872 16.896-1.024 46.592-2.048 93.696-2.56 140.288v20.992c0 32.768 1.024 41.472 1.536 43.52 1.024 1.536 3.584 4.608 11.776 7.168l6.656 1.536h420.352c5.12 0 10.752-2.56 16.896-7.168l1.024-0.512c0.512-0.512 1.024-2.56 1.536-6.656v-199.68c0-7.168-2.56-12.8-13.824-15.36l-5.632-1.024H297.472v-166.4h134.144V546.304c0 5.12 1.024 10.752 12.8 12.8H860.16c2.048 0 6.656 0 10.752-11.264v-199.68c0-2.048-2.56-6.144-8.704-11.264H443.904c-5.632 0-9.728 1.536-12.288 9.728V409.6H297.472v-312.832h134.656v65.536c1.536 3.584 3.584 7.168 6.656 7.68 5.632 0.512 44.032 1.024 135.168 1.024 83.968 0 185.856-0.512 279.04-1.024 11.264-2.048 13.312-6.656 14.336-10.752 0.512-1.536 1.024-9.216 1.536-42.496v-32.768c0-29.696-0.512-69.12-1.536-128-5.632-11.264-11.264-11.264-13.312-11.264H438.272z m46.08 54.272h328.192v117.76H484.352v-117.76z m0 390.144h328.192V506.88H484.352v-117.76zM109.056 681.472h348.672v117.76H109.056v-117.76z"
                   horiz-adv-x="1024"/>

            <glyph glyph-name="bg-money" unicode="&#59756;"
                   d="M697.27343723 412.82812527a28.12499973 28.12499973 0 0 0-28.82812446-27.421875h-126.5625v-52.734375h100.1953125a29.53125 29.53125 0 0 0 28.82812446-28.82812527v-3.1640625a28.12499973 28.12499973 0 0 0-28.82812446-27.07031223h-100.54687527v-123.04687554a29.53125 29.53125 0 0 0-59.41406277 0v123.04687554H381.57031277a26.71875027 26.71875027 0 0 0-27.77343777 27.07031223v3.1640625a28.4765625 28.4765625 0 0 0 27.77343777 28.82812527h100.89843723V384H355.20312527a28.12499973 28.12499973 0 0 0-28.12500054 27.77343777v2.81249973a28.4765625 28.4765625 0 0 0 28.12500054 28.4765625h137.109375L393.17187527 543.2578125a29.88281277 29.88281277 0 0 0 42.1875 42.1875L512 509.15624973l76.28906277 76.28906277a29.53125 29.53125 0 1 0 41.83593723-41.83593723l-97.38281277-97.03125h137.46093777a30.23437473 30.23437473 0 0 0 28.82812527-29.53125zM512 805.875a421.875 421.875 0 1 1 421.875-421.875A421.875 421.875 0 0 1 512 805.875z"
                   horiz-adv-x="1024"/>

            <glyph glyph-name="ganggutong01" unicode="&#59753;"
                   d="M593.13183594 805.21582031c-50.49316406-25.89257813-57.82324219-74.19726563-28.97753907-118.94238281 32.2734375-50.09765625-2.97949219-130.70214844-46.66992187-150.26660156-66.18164063-29.71582031-83.50488281-105.046875-40.73730469-151.6640625l2.71582032-3.61230469-11.91796875 2.37304687C234.45898437 502.15136719 350.52734375 821.77441406 593.13183594 805.21582031zM108.84570312 605.40527344c9.0703125-55.8984375 52.86621094-77.75683594 104.46679688-64.23046875 57.74414063 15.16113281 123.71484375-43.21582031 128.90917969-90.67675782 7.88378906-71.9296875 74.38183594-111.63867188 132.07324218-85.50878906l4.66699219 1.74023438-6.24902343-10.7578125C287.16699219 171.45410156000003 18.06347656 380.38769531 108.84570312 605.40527344zM149.76757812 84.36328125c56.109375-8.67480469 90.4921875 26.10351563 93.55078126 79.23339844 3.375 59.45800781 79.41796875 103.9921875 126.29882812 94.23632812 71.05957031-14.765625 129.48925781 36.04394531 122.37011719 98.82421875L490.90625 363.67089844l9.22851563-11.28515625C618.70800781 119.37890625 336.31542969-71.22949218999997 149.76757812 84.36328125zM659.31347656-37.848632810000026c25.62890625 50.51953125 3.05859375 93.89355469-46.66992187 113.22070312-55.66113281 21.59472656-74.61914063 107.47265625-50.86230469 148.921875 36.04394531 62.83300781 5.66894531 133.91894531-56.42578125 146.57519532-0.79101563-0.10546875-6.35449219 2.08300781-6.35449219 2.08300781L512 377.27636719C770.87304688 417.75 865.39941406 90.98144531000003 659.31347656-37.848632810000026zM810.97753906 398.39648438c-37.81054688-46.08984375-125.58691406-37.546875-157.75488281-2.18847657-48.77929688 53.60449219-125.98242188 46.72265625-157.22753906-8.2265625l-4.03417969-4.87792968c0 0 0 11.8125 0 13.23632812 41.52832031 257.87109375 382.21875 246.55957031 441.41308594 11.33789063C893.05859375 447.57128906 844.72753906 439.58203125 810.97753906 398.39648438z"
                   horiz-adv-x="1024"/>

            <glyph glyph-name="meiyuan" unicode="&#59754;"
                   d="M875.56662158 537.59114414a395.18349266 395.18349266 0 0 1-363.56662158 240.88000983 392.44372863 392.44372863 0 0 1-278.96272335-115.50843062A392.49852401 392.49852401 0 0 1 117.47405066 384a392.44372863 392.44372863 0 0 1 115.56322599-279.01751873 393.32045346 393.32045346 0 0 1 278.96272335-115.50843061 392.44372863 392.44372863 0 0 1 279.01751873 115.50843061 392.44372863 392.44372863 0 0 1 115.50843061 279.01751873c0 53.26100283-10.41110115 104.93294334-30.95932776 153.59114414z m-355.40212607-123.61813075l11.61659703-5.97268525c38.84984639-20.16466019 60.54877472-34.4114305 75.06952071-49.09656261 15.56185695-15.83583383 23.39758019-32.9867531 26.08254885-57.26105691 2.63017328-24.16471427-4.49321248-47.45270492-20.65781616-67.34338823a122.63181638 122.63181638 0 0 0-65.31596288-40.2197284l-4.54800786-1.15070172v-45.64445988a30.35657982 30.35657982 0 0 0-60.71315964 0v45.3704842l-4.60280324 1.15070051a156.00213591 156.00213591 0 0 0-47.9458621 20.1646602 137.70051493 137.70051493 0 0 0-30.95932777 25.31541476 30.35657982 30.35657982 0 0 0 45.80884602 39.89095735c2.52058252-2.90414896 8.6576527-8.27408626 17.37010077-13.75361312 15.890628-9.91794396 32.87716235-14.90431363 50.57603538-14.90431363 21.09617918 0 40.38411454 7.50695219 51.61714514 20.00027406a31.78125722 31.78125722 0 0 1 9.04121913 24.49348531c-2.08222071 19.01395846-18.13723485 32.76757159-68.65847365 59.01450658l-11.6713924 5.97268525c-38.84984639 20.16466019-60.60356889 34.35663511-75.06952071 49.04176723-15.61665232 15.83583383-23.39758019 32.9867531-26.02775468 57.31585229-2.73976403 24.16471427 4.38362173 47.45270492 20.54822661 67.28859284 15.6714477 19.28793535 38.90464176 33.58950105 65.37075826 40.27452379l4.49321248 1.15070172v45.5896645a30.46617057 30.46617057 0 0 0 60.8227504 0v-45.3704842l4.60280324-1.09590513c17.09612388-4.05484946 33.15113923-10.84946417 47.94586089-20.1646602 16.93173897-10.57548729 26.63050141-20.38384048 30.95932898-25.31541476a30.35657982 30.35657982 0 0 0-45.75405185-39.89095735 84.65869361 84.65869361 0 0 1-17.42489616 13.75361312 93.75470812 93.75470812 0 0 1-50.57603417 14.95910901c-21.0413838 0-40.38411454-7.50695219-51.61714514-20.05506944a32.00043873 32.00043873 0 0 1-9.09601571-24.49348531c2.08222071-19.01395846 18.13723485-32.76757159 68.71327023-59.01450658z"
                   horiz-adv-x="1024"/>

            <glyph glyph-name="shenfenzhengkapian" unicode="&#59755;"
                   d="M953.86906294 632.55134815v-497.1026963a110.46726541 110.46726541 0 0 0-110.46726541-110.46726542H180.59820247a110.46726541 110.46726541 0 0 0-110.46726541 110.46726542V632.55134815a110.46726541 110.46726541 0 0 0 110.46726541 110.46726542h662.80359506a110.46726541 110.46726541 0 0 0 110.46726541-110.46726542z m-276.16816418-82.85044939a27.61681602 27.61681602 0 0 1 0-55.23363335h138.08408274a27.61681602 27.61681602 0 0 1 0 55.23363335h-138.08408274z m0-138.08408274a27.61681602 27.61681602 0 0 1 0-55.23363204h138.08408274a27.61681602 27.61681602 0 0 1 0 55.23363204h-138.08408274z m0-138.08408143a27.61681602 27.61681602 0 0 1 0-55.23363335h138.08408274a27.61681602 27.61681602 0 0 1 0 55.23363335h-138.08408274zM373.91591727 577.3177147900001a82.85044939 82.85044939 0 0 1-82.85044939-82.85044938v-55.23363206a82.85044939 82.85044939 0 0 1 165.70089877 0v55.23363206a82.85044939 82.85044939 0 0 1-82.85044938 82.85044938z m-93.01343698-240.12821869c-42.52989692-18.5032666-77.65848746-49.35125145-100.30427782-87.572925V245.91591727000002a55.23363335 55.23363335 0 0 1 55.23363335-55.23363206h276.16816418a55.23363335 55.23363335 0 0 1 55.23363335 55.23363206v3.70065383c-22.64578907 38.22167355-57.80199728 69.04204071-100.30427781 87.54530861A137.58698003 137.58698003 0 0 0 373.91591727 301.14955061a137.58698003 137.58698003 0 0 0-93.01343698 36.03994549z"
                   horiz-adv-x="1024"/>

            <glyph glyph-name="EURO-circle-fill" unicode="&#60416;"
                   d="M512 804C280.0625 804 92 615.9375 92 384s188.0625-420 420-420 420 188.0625 420 420S743.9375 804 512 804z m59.53125-352.3125c4.125 0 7.5-3.375 7.5-7.5V418.6875c0-4.125-3.375-7.5-7.5-7.5h-127.5c-0.28125-4.125-0.28125-8.53125-0.28125-12.9375v-33.75h127.6875c4.125 0 7.5-3.375 7.5-7.5V331.5c0-4.125-3.375-7.5-7.5-7.5H449.09375c14.34375-58.125 57.46875-92.4375 121.6875-92.4375 18.65625 0 34.78125 1.125 48.5625 3.84375 4.59375 0.9375 8.90625-2.625 8.90625-7.3125v-40.125c0-3.5625-2.53125-6.5625-6-7.3125-14.90625-3.1875-32.15625-4.78125-51.84375-4.78125-102.9375 0-171.5625 55.125-187.6875 148.125H354.5c-4.125 0-7.5 3.375-7.5 7.5v25.5c0 4.125 3.375 7.5 7.5 7.5h24.46875v34.59375c0 4.125 0 8.25 0.28125 12H354.5c-4.125 0-7.5 3.375-7.5 7.5v25.5c0 4.125 3.375 7.5 7.5 7.5h29.71875c18.46875 88.3125 86.25 140.53125 186.1875 140.53125 19.59375 0 36.9375-1.78125 51.84375-5.0625 3.46875-0.75 5.90625-3.75 5.90625-7.3125V539.625h0.09375c0-4.78125-4.3125-8.25-9-7.3125-13.78125 2.71875-29.8125 4.125-48.46875 4.125-61.3125 0-103.5-31.40625-119.625-84.75h120.375z"
                   horiz-adv-x="1024"/>

            <glyph glyph-name="qingkong1" unicode="&#59752;" d="" horiz-adv-x="1024"/>

            <glyph glyph-name="gengduo1" unicode="&#59747;"
                   d="M511.817 867.393c-266.75 0-482.997-216.246-482.997-482.996s216.246-482.996 482.997-482.996 482.996 216.246 482.996 482.996S778.566 867.393 511.817 867.393z m0-898.202c-229.313 0-415.208 185.893-415.208 415.207S282.504 799.605 511.817 799.605 927.024 613.71 927.024 384.397 741.13-30.809 511.817-30.809zM452.502 392.871a66.245 66.245 0 1 1 135.578 0 66.245 66.245 0 1 1-135.578 0zM249.135 392.871a66.245 66.245 0 1 1 135.578 0 66.245 66.245 0 1 1-135.578 0zM655.868 392.871a66.245 66.245 0 1 1 135.579 0 66.245 66.245 0 1 1-135.578 0z"
                   horiz-adv-x="1024"/>

            <glyph glyph-name="zuo3" unicode="&#59739;"
                   d="M333.596672 435.2h608.256v-30.72h-608.256zM354.205696 553.984v-266.24L50.97472 420.864l303.233024 133.12z m-23.681024-34.816l-233.472-98.304 233.472-98.304v196.608z"
                   horiz-adv-x="1024"/>

            <glyph glyph-name="zuo8" unicode="&#59738;"
                   d="M987.136 406.528H329.728v-32.768h657.408zM210.944 523.264c73.521152 0 133.12-59.598848 133.12-133.12l-0.018432-2.2016C342.870016 315.437056 283.72992 257.024 210.944 257.024c-73.521152 0-133.12 59.598848-133.12 133.12l0.018432 2.2016C79.017984 464.850944 138.15808 523.264 210.944 523.264z m0-22.528c-60.4672 0-109.600768-48.52736-110.577664-108.763136L100.352 390.144c0-61.077504 49.514496-110.592 110.592-110.592 60.4672 0 109.600768 48.52736 110.577664 108.763136L321.536 390.144c0 61.077504-49.514496 110.592-110.592 110.592z"
                   horiz-adv-x="1024"/>

            <glyph glyph-name="you8" unicode="&#59744;"
                   d="M83.968 406.528h657.408v-32.768H83.968zM860.16 523.264c-73.521152 0-133.12-59.598848-133.12-133.12l0.018432-2.2016C728.233984 315.437056 787.37408 257.024 860.16 257.024c73.521152 0 133.12 59.598848 133.12 133.12l-0.018432 2.2016C992.086016 464.850944 932.94592 523.264 860.16 523.264z m0-22.528c60.4672 0 109.600768-48.52736 110.577664-108.763136L970.752 390.144c0-61.077504-49.514496-110.592-110.592-110.592-60.4672 0-109.600768 48.52736-110.577664 108.763136L749.568 390.144c0 61.077504 49.514496 110.592 110.592 110.592z"
                   horiz-adv-x="1024"/>

            <glyph glyph-name="you3" unicode="&#59746;"
                   d="M689.948672 435.2h-608.256v-30.72h608.256zM683.6736 553.984v-266.24l303.235072 133.12-303.235072 133.12z m23.683072-34.816l233.472-98.304-233.472-98.304v196.608z"
                   horiz-adv-x="1024"/>

            <glyph glyph-name="you6" unicode="&#59751;"
                   d="M59.392 400.384h538.624v-32.768H59.392zM780.288 510.976l-217.088-125.952L780.288 259.072l217.088 125.952L780.288 510.976z m0-24.576l174.08-101.376-174.08-101.376-174.08 101.376 174.08 101.376z"
                   horiz-adv-x="1024"/>

            <glyph glyph-name="zuo9" unicode="&#59735;"
                   d="M974.848 406.528H90.112v-32.768h884.736zM377.315328 282.341376a16.513024 16.513024 0 0 1 23.351296 23.353344L202.26048 504.086528a16.50688 16.50688 0 0 1-23.351296-23.332864l198.406144-198.414336z"
                   horiz-adv-x="1024"/>

            <glyph glyph-name="hengxian" unicode="&#59726;" d="M976.896 400.384v-34.816H45.056v34.816h931.84z"
                   horiz-adv-x="1024"/>

            <glyph glyph-name="jiesuowenjian" unicode="&#59727;"
                   d="M576.126976 398.809088c0 9.33888-3.178496 56.027136-65.536 56.027136-62.359552 0-65.536-46.688256-65.536-56.027136v-56.027136h131.072v56.027136z m89.23136 236.50304H856.064L672.673792 843.292672A25.6512 25.6512 0 0 1 665.35424 848.896v-213.583872zM378.88 274.870272h264.445952V162.816H378.88v112.054272zM616.1408 848.896v-233.828352c0-28.059648 23.629824-51.017728 52.508672-51.017728H909.312V-9.89184c0-51.52768-43.23328-93.53216-96.264192-93.53216H210.952192C157.92128-103.424 114.688-61.41952 114.688-9.89184V755.36384c0.096256 51.617792 43.139072 93.437952 96.264192 93.53216H616.1408zM512 519.49568c-83.838976 0-127.770624-62.410752-127.770624-124.141568v-56.119296h-34.654208c-19.253248 0-35.006464-15.304704-35.006464-34.011136v-180.260864c0-18.706432 15.753216-34.011136 35.006464-34.011136h324.675584c19.2512 0 35.004416 15.304704 35.004416 34.011136v180.260864c0 18.706432-15.751168 34.011136-35.004416 34.011136h-34.480128l-0.002048 0.11264L561.152 343.04l-0.75776 36.1984 79.374336-7.143424v23.259136c0 61.11232-43.057152 122.894336-125.26592 124.123136z"
                   horiz-adv-x="1024"/>

            <glyph glyph-name="quxian" unicode="&#59728;"
                   d="M204.8 734.208v-53.088256C516.265984 633.079808 758.45632 376.05376 782.706688 58.368H835.584C811.016192 405.118976 545.366016 685.58848 204.8 734.154752V734.208zM177.3568 793.6C133.697536 793.6 98.304 758.269952 98.304 714.688512c0-43.58144 35.393536-78.911488 79.0528-78.911488s79.0528 35.328 79.0528 78.90944C256.4096 758.272 221.016064 793.6 177.3568 793.6z m0-52.606976c14.553088 0 26.351616-11.776 26.351616-26.304512 0-14.528512-11.798528-26.304512-26.351616-26.304512-14.553088 0-26.351616 11.776-26.351616 26.304512 0 14.526464 11.79648 26.304512 26.351616 26.304512z m632.4224-631.296c-43.659264 0-79.0528-35.332096-79.0528-78.913536 0-43.58144 35.393536-78.911488 79.0528-78.911488s79.0528 35.330048 79.0528 78.911488c0 43.58144-35.393536 78.911488-79.0528 78.911488z m0-52.609024c14.553088 0 26.351616-11.776 26.351616-26.304512 0-14.526464-11.79648-26.304512-26.351616-26.304512-14.553088 0-26.351616 11.776-26.351616 26.304512 0 14.528512 11.798528 26.304512 26.351616 26.304512z"
                   horiz-adv-x="1024"/>

            <glyph glyph-name="xuxiandian" unicode="&#59729;"
                   d="M47.104 365.568v34.816h62.820352v-34.816H47.104z m289.611776 0v34.816h62.820352v-34.816h-62.820352z m579.223552 0v34.816h62.820352v-34.816h-62.820352z m-289.611776 0v34.816h62.820352v-34.816h-62.820352z m-434.417664 0v34.816h62.820352v-34.816H191.909888z m579.223552 0v34.816h62.820352v-34.816H771.13344z m-289.611776 0v34.816h62.820352v-34.816h-62.820352z"
                   horiz-adv-x="1024"/>

            <glyph glyph-name="you2" unicode="&#59730;"
                   d="M40.6016 435.2H846.92992v-30.72H40.6016v30.72z m639.205376 118.784L983.04 420.864l-303.233024-133.12V553.984z"
                   horiz-adv-x="1024"/>

            <glyph glyph-name="you11" unicode="&#59731;"
                   d="M81.92 398.336h806.326272v-30.72H81.92v30.72z m713.289728 30.72L950.272 382.976 795.209728 336.896v92.16z"
                   horiz-adv-x="1024"/>

            <glyph glyph-name="you5" unicode="&#59732;"
                   d="M944.128 400.384H59.392v-32.768h884.736zM577.536 385.024l202.752-117.76 202.752 117.76-202.752 117.76z"
                   horiz-adv-x="1024"/>

            <glyph glyph-name="you41" unicode="&#59733;"
                   d="M53.248 400.384h884.736v-32.768H53.248zM708.0448 193.57696c-7.440384 5.517312-7.440384 14.467072 0 19.982336l228.448256 169.418752-228.448256 169.41056c-7.440384 5.51936-7.440384 14.465024 0 19.984384 7.438336 5.51936 19.503104 5.51936 26.94144 0l237.95712-176.490496s10.09664-7.313408 10.09664-12.904448c0-5.154816-10.09664-12.908544-10.09664-12.908544L734.98624 193.57696c-7.438336-5.51936-19.503104-5.51936-26.94144 0z"
                   horiz-adv-x="1024"/>

            <glyph glyph-name="duandianxuxian" unicode="&#59734;"
                   d="M47.104 365.568v34.816h144.31232v-34.816H47.104z m237.082624 0v34.816h63.238144v-34.816h-63.238144z m393.764864 0v34.816h63.238144v-34.816H677.94944z m-237.082624 0v34.816h144.310272v-34.816h-144.310272z m393.762816 0v34.816H978.944v-34.816h-144.31232z"
                   horiz-adv-x="1024"/>

            <glyph glyph-name="xuxian" unicode="&#59736;"
                   d="M47.104 365.568v34.816h186.368v-34.816H47.104z m248.489984 0v34.816h186.368v-34.816h-186.368zM792.576 365.568v34.816h186.368v-34.816h-186.368z m-248.489984 0v34.816h186.368v-34.816h-186.368z"
                   horiz-adv-x="1024"/>

            <glyph glyph-name="you9" unicode="&#59737;"
                   d="M90.112 406.528h884.736v-32.768H90.112zM687.644672 282.341376a16.513024 16.513024 0 0 0-23.351296 23.353344l198.406144 198.393856a16.50688 16.50688 0 0 0 23.351296-23.332864l-198.406144-198.414336z"
                   horiz-adv-x="1024"/>

            <glyph glyph-name="zuo11" unicode="&#59740;"
                   d="M950.272 398.336H143.945728v-30.72H950.272v30.72z m-713.289728 30.72L81.92 382.976l155.062272-46.08v92.16z"
                   horiz-adv-x="1024"/>

            <glyph glyph-name="yunhang" unicode="&#59741;"
                   d="M579.612672 879.616c22.84544 0 42.072064-17.1008 44.744704-39.784448l0.315392-5.271552v-135.168h128.8704c26.202112-0.006144 48.201728-19.730432 51.052544-45.776896l0.315392-5.586944V384v0.034816c0-156.76416-115.11808-289.75104-270.27456-312.223744l-0.08192-70.787072a22.528 22.528 0 0 1 18.47296-22.167552l4.05504-0.360448h247.82848c24.8832-0.026624 45.03552-20.221952 45.008896-45.105152-0.024576-22.806528-17.088512-41.998336-39.737344-44.691456l-5.271552-0.315392h-247.82848c-59.35104 0-108.527616 46.030848-112.420864 105.250816l-0.22528 7.389184v70.73792C289.23904 94.199808 174.08 227.203072 174.08 384V648.02816C174.08 676.41344 197.05856 699.392 225.447936 699.392h128.8704V834.56c0.026624 24.8832 20.221952 45.033472 45.1072 45.006848 22.808576-0.026624 42.000384-17.088512 44.695552-39.735296L444.43648 834.56v-135.168h90.118144V834.56c0 24.8832 20.1728 45.056 45.060096 45.056zM714.752 609.28H264.192v-225.28 0.012288c0-120.610816 94.992384-219.824128 215.49056-225.067008l9.78944-0.22528c124.418048 0 225.28 100.861952 225.28 225.28V609.28z m-180.199424-247.808c24.897536-0.026624 45.060096-20.221952 45.031424-45.105152-0.024576-22.806528-17.096704-41.998336-39.755776-44.691456l-5.275648-0.315392h-90.161152c-24.897536 0.026624-45.060096 20.221952-45.031424 45.105152 0.024576 22.806528 17.096704 41.998336 39.755776 44.691456l5.275648 0.315392h90.161152z"
                   horiz-adv-x="1024"/>

            <glyph glyph-name="zuo2" unicode="&#59742;"
                   d="M983.04 435.2H176.713728v-30.72H983.04v30.72z m-639.203328 118.784L40.6016 420.864l303.235072-133.12V553.984z"
                   horiz-adv-x="1024"/>

            <glyph glyph-name="zhixianlianjie" unicode="&#59743;"
                   d="M935.936 195.87072V-27.648H715.790336v189.99296L305.348608 572.12928H118.784V795.648h220.145664v-189.99296l410.441728-409.78432H935.936zM761.856 19.456h131.072v131.072h-131.072v-131.072zM290.816 752.64H159.744v-131.072h131.072V752.64z"
                   horiz-adv-x="1024"/>

            <glyph glyph-name="you7" unicode="&#59745;"
                   d="M83.968 406.528h884.736v-32.768H83.968zM983.04 390.144c0-67.864576-55.015424-122.88-122.88-122.88s-122.88 55.015424-122.88 122.88 55.015424 122.88 122.88 122.88 122.88-55.015424 122.88-122.88z"
                   horiz-adv-x="1024"/>

            <glyph glyph-name="zuo7" unicode="&#59748;"
                   d="M983.04 406.528H98.304v-32.768h884.736zM83.968 390.144c0-67.864576 55.015424-122.88 122.88-122.88s122.88 55.015424 122.88 122.88-55.015424 122.88-122.88 122.88-122.88-55.015424-122.88-122.88z"
                   horiz-adv-x="1024"/>

            <glyph glyph-name="zuo4" unicode="&#59749;"
                   d="M983.04 400.384H98.304v-32.768h884.736zM328.2432 193.57696c7.440384 5.517312 7.440384 14.467072 0 19.982336L99.794944 382.978048l228.448256 169.41056c7.440384 5.51936 7.440384 14.465024 0 19.984384-7.438336 5.51936-19.503104 5.51936-26.94144 0L63.34464 395.882496S53.248 388.569088 53.248 382.978048c0-5.154816 10.09664-12.908544 10.09664-12.908544l237.95712-176.490496c7.438336-5.51936 19.503104-5.51936 26.94144 0z"
                   horiz-adv-x="1024"/>

            <glyph glyph-name="zuo5" unicode="&#59750;"
                   d="M983.04 400.384H98.304v-32.768h884.736zM464.896 385.024L262.144 267.264l-202.752 117.76 202.752 117.76z"
                   horiz-adv-x="1024"/>

            <glyph glyph-name="xiaoyanyunying" unicode="&#59725;"
                   d="M162 703.999V184h700V703.999H162z m640-460H222v400h580v-400zM352 124.001h320v-60H352zM285.787 371.766h64.853l60 60 4.807 4.807 37.574-37.574 42.426-42.426 42.427 42.426 47.573 47.574 19.807-19.807 60-60h92.959v60h-68.105l-62.234 62.233-42.427 42.427-42.426-42.427-47.574-47.573-37.573 37.573-42.427 42.427-42.426-42.427-47.234-47.233h-57.574v-57.574l-2.426-2.426h2.426z"
                   horiz-adv-x="1024"/>

            <glyph glyph-name="ziduan1" unicode="&#59724;"
                   d="M438.272 501.92384L666.681344 365.568 886.784 497.664 658.374656 629.76 438.272 501.92384zM405.504 416.768v-162.617344L614.4 130.048v158.337024L405.504 416.768z m501.76-4.096l-208.896-124.266496V134.144l208.896 124.266496V412.672zM655.36 723.968l331.776-196.929536v-316.796928L655.36 13.312l-331.776 196.929536V527.038464L655.36 723.968zM51.2 603.136m16.384 0l219.136 0q16.384 0 16.384-16.384l0-36.864q0-16.384-16.384-16.384l-219.136 0q-16.384 0-16.384 16.384l0 36.864q0 16.384 16.384 16.384ZM51.2 406.528m16.384 0l219.136 0q16.384 0 16.384-16.384l0-34.816q0-16.384-16.384-16.384l-219.136 0q-16.384 0-16.384 16.384l0 34.816q0 16.384 16.384 16.384ZM51.2 214.016m16.384 0l219.136 0q16.384 0 16.384-16.384l0-34.816q0-16.384-16.384-16.384l-219.136 0q-16.384 0-16.384 16.384l0 34.816q0 16.384 16.384 16.384Z"
                   horiz-adv-x="1024"/>

            <glyph glyph-name="xiantiaoyanse" unicode="&#59713;"
                   d="M555.7553691864015 377.95691871643066c-24.1823673248291 10.243806838989258-46.07975006103515-0.5453681945800781-56.134300231933594-12.246065139770506-10.052232742309569-11.700696945190431-14.887933731079098-36.440792083740234-25.117063522338867-60.26318550109865-10.229129791259767-23.823938369750977-46.713953018188484-70.20881652832033-46.713953018188484-70.20881652832033s42.05746650695801 2.160615921020508 64.27001953125 7.094421386718748c40.60521125793456 9.023294448852537 69.26794052124023 30.342864990234375 79.40746307373048 48.10209274291993s9.163112640380861 40.338706970214844 9.163112640380861 40.338706970214844 2.899103164672852 35.427303314208984-24.87527847290039 47.18284606933593zM591.5225620269775 465.1161804199219l66.13168716430664-57.75186538696289-65.62648773193361-49.608421325683594-42.479238510131836 42.21350669860839zM882.3250885009766 749.8648109436035c-14.024305343627933 10.553569793701174-146.20116233825684-104.2433452606201-175.12807846069336-134.20460700988767-34.9530029296875-36.200551986694336-111.68460845947267-138.75603675842285-111.68460845947267-138.75603675842285l72.60890007019044-61.57793998718263s75.47555923461915 68.1748867034912 125.70196151733398 138.31572532653811c44.9820613861084 62.82548904418945 102.52690315246582 185.66851615905762 88.50259780883789 196.22285842895508zM136.6561336517334 201.23135948181164h748.8631439208983v-185.65692901611328H136.6561336517334v185.65692901611328zM136.6561336517334 384H402.63282012939453v-153.70113372802734H136.6561336517334V384z"
                   horiz-adv-x="1024"/>

            <glyph glyph-name="fanhui" unicode="&#59714;"
                   d="M947.4 32C893.2 198.3 736.2 317.1 551 320.5c-23.1 0.4-44.9-0.1-65.6-1.5v-164.3c0.1-0.5 0.2-1 0.2-1.5 0-4-3.3-7.3-7.3-7.3-2.7 0-5 1.4-6.2 3.5v-0.7L68.8 430.6h2.1c-4 0-7.3 3.3-7.3 7.3 0 2.9 1.7 5.4 4.1 6.6L472 727v-0.7c1.3 2.1 3.6 3.5 6.2 3.5 4 0 7.3-3.3 7.3-7.3 0-0.5-0.1-1-0.2-1.5v-159.4c18.5 0.9 37.9 1.2 58.3 0.8 230.1-3.9 416.7-196.9 416.7-427.1 0.1-35.5-4.5-70.2-12.9-103.3z m-462 704.4v-0.2h-0.4l0.4 0.2z m0-596.9l-0.3 0.2h0.3v-0.2z"
                   horiz-adv-x="1024"/>

            <glyph glyph-name="xieti" unicode="&#59715;"
                   d="M512 678.89573a33.048659 33.048659 0 0 1-7.118173 33.048659 92.027805 92.027805 0 0 1-47.285005 15.253228 17.286991 17.286991 0 0 0-15.761668 16.270109 26.438928 26.438928 0 0 0 0 7.118173v9.660377q33.5571-3.559086 66.097319-5.084409t60.504468 0h56.945383q33.5571 0 63.555114 5.084409a94.061569 94.061569 0 0 0 0-16.77855 14.744786 14.744786 0 0 0-15.761668-16.77855 107.789474 107.789474 0 0 1-50.844092-15.761669 53.894737 53.894737 0 0 1-18.812314-33.5571L498.780536 104.357498a31.014896 31.014896 0 0 1 7.626614-32.540219 112.365442 112.365442 0 0 1 50.844091-15.761668 16.270109 16.270109 0 0 0 14.744787-16.77855 96.095333 96.095333 0 0 0 0-17.795432q-33.5571 3.559086-68.131083 5.084409H384.889772q-33.048659 0-63.046674-5.084409a96.095333 96.095333 0 0 0 0 17.795432 14.236346 14.236346 0 0 0 13.219464 15.761668 131.686197 131.686197 0 0 1 50.844091 16.270109 50.844091 50.844091 0 0 1 20.337637 33.04866z"
                   horiz-adv-x="1024"/>

            <glyph glyph-name="T-jiacu" unicode="&#59716;"
                   d="M603.3 409.8v5.1c157.1 6.8 242.3 72.9 255.7 198.4C849 755.7 740.4 828.7 533.1 832.1H117v-45.8c86.9 3.3 127-23.7 120.3-81.4v-636c6.7-64.4-33.4-93.3-120.3-86.5v-45.8h491.3c167.1 6.8 264 88.2 290.8 244.2-6.7 142.5-105.3 218.8-295.8 229zM483 786.3c153.7 3.3 228.9-57.7 225.6-183.2 3.3-118.8-68.5-176.4-215.6-173H367.7V725.2c-10 40.7 28.4 61.1 115.3 61.1z m15-803.9c-97-6.8-140.4 22.1-130.4 86.5V384.4h205.5c117-3.4 177.2-71.2 180.5-203.5C757 45.2 671.8-20.9 498-17.6z"
                   horiz-adv-x="1024"/>

            <glyph glyph-name="T-xiahuaxian" unicode="&#59719;"
                   d="M647.8 832.1v-39.2c100.6 0 147.6-34.9 140.9-104.7V309c-3.4-145.4-90.6-218-261.7-218-141 0-209.7 61-206.4 183V723c-10.1 49.4 30.2 72.6 120.8 69.8V832.1H64v-39.2c87.2 2.8 127.4-20.4 120.7-69.8v-444.7c0-142.4 109-215 327.1-218 204.6 2.9 312 82.8 322.1 239.8v388c-6.7 69.8 35.2 104.7 125.8 104.7V832.1H647.8zM76.9-63.6h870V11h-870v-74.6z"
                   horiz-adv-x="1024"/>

            <glyph glyph-name="zu1" unicode="&#59720;"
                   d="M411.880727-9.169455v279.272728h149.876364v-279.272728z m54.272 279.645091v124.881455h412.904728V570.228364h-64.605091v-116.363637h-698.181819v279.272728h698.181819v-116.363637h111.104v-268.055273h-412.904728v-78.289454z"
                   horiz-adv-x="1024"/>

            <glyph glyph-name="Shapes" unicode="&#59721;"
                   d="M373.333333 746.666667A224 224 0 0 1 341.333333 300.928v-64.512A288.042667 288.042667 0 1 0 659.584 554.666667h-64.512A224.042667 224.042667 0 0 1 373.333333 746.666667zM522.666667 512A138.666667 138.666667 0 0 1 384 373.333333v-277.333333A138.666667 138.666667 0 0 1 522.666667-42.666667h277.333333A138.666667 138.666667 0 0 1 938.666667 96v277.333333A138.666667 138.666667 0 0 1 800 512h-277.333333z m-74.666667-138.666667c0 41.216 33.450667 74.666667 74.666667 74.666667h277.333333c41.216 0 74.666667-33.450667 74.666667-74.666667v-277.333333a74.666667 74.666667 0 0 0-74.666667-74.666667h-277.333333a74.666667 74.666667 0 0 0-74.666667 74.666667v277.333333z"
                   horiz-adv-x="1024"/>

            <glyph glyph-name="tianse" unicode="&#59722;"
                   d="M363.951 835.344a8 8 0 0 1-11.314 0l-33.941-33.94a8 8 0 0 1 0-11.314l95.873-95.874L75.158 354.80499999999995c-12.497-12.497-12.497-32.758 0-45.255l362.038-362.038c12.497-12.497 32.758-12.497 45.255 0L844.49 309.54999999999995c12.497 12.497 12.497 32.758 0 45.255L363.951 835.345z m157.69-248.199l254.967-254.967-0.707-0.707H143.747l-0.707 0.707 316.784 316.784 61.812-61.812a0.012 0.012 0 0 1 0.005-0.005zM928 49.31299999999999c0 48.634-57.5 112.688-64 126.688-6-14.5-64-80.094-64-126.688 0-36.064 28.654-65.3 64-65.3 35.346 0 64 29.236 64 65.3z"
                   horiz-adv-x="1024"/>

            <glyph glyph-name="fanhui11" unicode="&#59723;"
                   d="M562.501818 553.099636V739.979636l311.482182-327.074909-311.482182-327.214545v191.627636c-222.487273 0-378.274909-74.752-489.518545-238.312727 44.544 233.658182 178.036364 467.316364 489.518545 514.094545z"
                   horiz-adv-x="1024"/>

            <glyph glyph-name="duliang" unicode="&#59711;"
                   d="M329.2 388c-5.2 0-10.2 2-14.2 5.8L88.2 620.6c-18 18-18 47.2 0 65l157.6 157.6c18 18 47.2 18 65 0l226.4-226.4c7.8-7.8 7.8-20.4 0-28.2-7.8-7.8-20.4-7.8-28.2 0L282.6 814.8c-2.4 2.4-6.2 2.4-8.4 0l-157.6-157.6c-1.4-1.4-1.8-3.2-1.8-4.2s0.4-2.8 1.8-4.2L343.4 422c7.8-7.8 7.8-20.4 0-28.2-4-3.8-9.2-5.8-14.2-5.8zM767.2-39.4c-11.8 0-23.6 4.4-32.6 13.4L509.2 199.6c-7.8 7.8-7.8 20.4 0 28.2 7.8 7.8 20.4 7.8 28.2 0l225.4-225.4c2.4-2.4 6.2-2.4 8.4 0l157.6 157.6c1.4 1.4 1.8 3.2 1.8 4.2 0 1.2-0.4 2.8-1.8 4.2L703.2 394.2c-7.8 7.8-7.8 20.4 0 28.2 7.8 7.8 20.4 7.8 28.2 0l225.8-225.8c8.6-8.6 13.4-20.2 13.4-32.6 0-12.2-4.8-23.8-13.4-32.6l-157.6-157.6c-8.8-8.6-20.6-13.2-32.4-13.2zM91.2-45c-5.2 0-10.4 2-14.2 5.8-4.4 4.4-6.4 10.4-5.8 16.6l27.6 221.8c0.6 4.4 2.6 8.6 5.6 11.6l624 626c10.4 10.4 24 16 38.6 16 14.6 0 28.2-5.6 38.6-16l145.4-145.4c21.2-21.2 21.2-55.8 0-77.2l-624-626c-3.2-3.2-7.2-5.2-11.6-5.8L93.6-44.8c-0.8-0.2-1.6-0.2-2.4-0.2z m46.6 232.6L114.2-2l189.6 23.6 619.2 621.2c5.8 5.8 5.8 15 0 20.6l-145.4 145.4c-2.8 2.8-6.4 4.2-10.4 4.2-3.8 0-7.6-1.6-10.4-4.2L137.8 187.6zM845 516.4c-5.2 0-10.2 2-14.2 5.8l-194.4 194.4c-7.8 7.8-7.8 20.4 0 28.2 7.8 7.8 20.4 7.8 28.2 0l194.4-194.4c7.8-7.8 7.8-20.4 0-28.2-3.8-3.8-9-5.8-14-5.8zM315-15.6c-5.2 0-10.2 2-14.2 5.8l-194.4 194.4c-7.8 7.8-7.8 20.4 0 28.2 7.8 7.8 20.4 7.8 28.2 0l194.4-194.4c7.8-7.8 7.8-20.4 0-28.2-3.8-3.8-9-5.8-14-5.8zM690.8 32.2c-5.2 0-10.2 2-14.2 5.8-7.8 7.8-7.8 20.4 0 28.2l124.8 124.8c7.8 7.8 20.4 7.8 28.2 0 7.8-7.8 7.8-20.4 0-28.2L705 38c-3.8-4-9-5.8-14.2-5.8zM610 113c-5.2 0-10.2 2-14.2 5.8-7.8 7.8-7.8 20.4 0 28.2l124.8 124.8c7.8 7.8 20.4 7.8 28.2 0 7.8-7.8 7.8-20.4 0-28.2L624 118.8c-3.8-3.8-8.8-5.8-14-5.8zM249 474c-5.2 0-10.2 2-14.2 5.8-7.8 7.8-7.8 20.4 0 28.2l124.8 124.8c7.8 7.8 20.4 7.8 28.2 0 7.8-7.8 7.8-20.4 0-28.2l-124.8-124.8c-3.8-3.8-8.8-5.8-14-5.8zM168.2 554.8c-5.2 0-10.2 2-14.2 5.8-7.8 7.8-7.8 20.4 0 28.2L279 714c7.8 7.8 20.4 7.8 28.2 0 7.8-7.8 7.8-20.4 0-28.2l-124.8-124.8c-4-4.2-9.2-6.2-14.2-6.2z"
                   horiz-adv-x="1024"/>

            <glyph glyph-name="zitiyanse" unicode="&#59712;"
                   d="M470.975 759l-214.462-562.5h102l44.513 131.25h217.949l48.038-131.25h102.002l-214.501 562.5h-85.5zM512 639.45l78.525-233.175h-160.538l82.013 233.212zM212 121.5v-112.5h599.999v112.5h-599.999z"
                   horiz-adv-x="1024"/>

            <glyph glyph-name="duiqifangshi" unicode="&#59704;"
                   d="M470.380269 705.770751H74.865328C51.596648 705.770751 28.332016 680.53502 28.332016 648.98732 28.332016 617.441644 51.598672 598.513834 74.863304 598.513834H464.564111c29.080791 0 46.531289 25.235731 46.531288 50.473486C516.911557 680.53502 493.646925 705.770751 470.380269 705.770751z m-4.444079-268.142293H74.395826C51.361897 437.628458 28.332016 417.516775 28.332016 384c0-33.518798 23.031905-53.628458 46.06381-53.628458h385.78087C488.970119 330.371542 512 350.483225 512 384c0 33.518798-23.031905 53.628458-46.06381 53.628458z m4.444079-268.142292H74.865328C45.778466 169.486166 28.332016 142.671937 28.332016 115.857708S51.598672 62.229249 74.863304 62.229249H464.564111c29.080791 0 46.531289 26.814229 46.531288 53.628459 5.816158 33.518798-17.448474 53.628458-40.71513 53.628458z m95.361518 268.142292L783.912474 169.486166 995.667984 437.628458H565.741787z"
                   horiz-adv-x="1024"/>

            <glyph glyph-name="shangyiyiceng" unicode="&#59705;"
                   d="M48.56917 78.418972h922.814229v-153.802371H48.56917zM509.976285 847.43083l230.703557-230.703557h-173.027668v-461.407115h-115.351779V616.727273H279.272727L509.976285 847.43083z m-115.351779-403.731225v-115.351779H48.56917v115.351779h346.055336z m576.758893 0v-115.351779H625.328063v115.351779h346.055336z"
                   horiz-adv-x="1024"/>

            <glyph glyph-name="xiantiaoleixing" unicode="&#59706;"
                   d="M40.474308 775.588933v-78.520158h943.051384V775.588933H40.474308z m392.936728-353.340712H40.474308v-78.520158h392.936728v78.520158z m157.175905-78.520158H983.525692v78.520158H590.586941v-78.520158zM40.474308-9.612648h235.762846v78.520158H40.474308v-78.520158z m353.644269 0h235.762846v78.520158h-235.762846v-78.520158z m353.644269 0H983.525692v78.520158H747.762846v-78.520158z"
                   horiz-adv-x="1024"/>

            <glyph glyph-name="zhiyudiceng" unicode="&#59707;"
                   d="M987.573123 225.13834L512 541.849802 36.426877 225.13834 512-91.573123l475.573123 316.711463zM512 859.573123L36.426877 532.858435 205.933281 416.379447l48.42751 73.218023-62.935526 43.260965L512 753.099383l320.574735-220.240948-59.988996-41.200822 48.544886-73.218024L987.573123 532.858435 512 859.573123z"
                   horiz-adv-x="1024"/>

            <glyph glyph-name="suodingwenjian" unicode="&#59708;"
                   d="M556.572332 406.728348c0 9.228142-2.616664 55.362783-53.984632 55.362782s-53.984632-46.13464-53.984633-55.362782v-55.362783h107.969265v55.362783z m108.786846 233.698656H852.996047L672.557534 845.941375A25.251921 25.251921 0 0 1 665.357154 851.478261v-211.051257zM383.494071 284.259162h238.023336V173.533597H383.494071v110.725565zM667.006482 571.219984c-28.390704 0-51.618909 22.588711-51.618909 50.196237V851.478261H217.067763c-52.224-0.093091-94.537866-41.239273-94.63298-92.024411v-752.931415c0-50.696095 42.498024-92.024411 94.63298-92.024411h591.88819c52.134957 0 94.63298 41.328316 94.63298 92.024411v564.697549H667.006482z m39.917787-432.014672c0-18.403668-15.48547-33.462134-34.413281-33.462134H353.340711c-18.925787 0-34.411257 15.056443-34.411256 33.462134v177.358419c0 18.403668 15.48547 33.462134 34.411256 33.462135h34.069249v55.215051c0 60.737771 43.186087 122.143368 125.603921 122.143368 82.41581 0 125.603921-61.405597 125.603921-122.143368v-55.215051h33.897234c18.925787 0 34.411257-15.056443 34.411256-33.462135v-177.358419z"
                   horiz-adv-x="1024"/>

            <glyph glyph-name="xiayiyiceng" unicode="&#59709;"
                   d="M48.56917 693.628458h922.814229V847.43083H48.56917zM509.976285-75.383399l230.703557 230.703557h-173.027668V616.727273h-115.351779v-461.407115H279.272727l230.703558-230.703557z m-115.351779 403.731225v115.351779H48.56917v-115.351779h346.055336z m576.758893 0v115.351779H625.328063v-115.351779h346.055336z"
                   horiz-adv-x="1024"/>

            <glyph glyph-name="zhiyudingceng" unicode="&#59710;"
                   d="M987.573123 542.86166L512 226.150198 36.426877 542.86166 512 859.573123l475.573123-316.711463zM512-91.573123L36.426877 235.141565 205.933281 351.620553l48.42751-73.218023-62.935526-43.260965L512 14.900617l320.574735 220.240948-59.988996 41.200822 48.544886 73.218024L987.573123 235.141565 512-91.573123z"
                   horiz-adv-x="1024"/>

            <glyph glyph-name="a-1" unicode="&#59703;"
                   d="M349.76 536.7747037500001H87.01976281V797.5968375h256.62924938v-90.983715h195.52505906V130.37786530999995h122.20458469v90.98371594H918.00790531V-33.39130406000004H661.37865594v90.983715H465.85359688V627.76031625h-122.20458469v-90.983715h6.10909031zM851.60474281 143.05138311999997h-110.03952562v-110.03952562h110.03952562v110.03952562zM270.63019719 719.81027625H166.70355688v-110.03952563h110.03952656V719.81027625h-6.11288625z"
                   horiz-adv-x="1024"/>

            <glyph glyph-name="jianshao" unicode="&#59700;"
                   d="M901.352727 852.29381799H122.647273C80.663273 852.29381799 46.545455 818.176 46.545455 776.238545v-778.752c0-41.937455 34.11781799-76.10181799 76.101818-76.101818h778.705454c41.937455 0 76.10181799 34.11781799 76.101818 76.101818V776.238545c0 41.937455-34.11781799 76.055273-76.101818 76.05527299z m-171.380363-500.54981799h-430.545455a34.909091 34.909091 0 1 0 0 69.81818199h430.545455a34.909091 34.909091 0 0 0 0-69.81818199z"
                   horiz-adv-x="1024"/>

            <glyph glyph-name="icon_fabu" unicode="&#60296;"
                   d="M166.464 447.296l212.64-128.736a32 32 0 1 0-33.152-54.72l-266.528 161.312a32 32 0 0 0 4.256 56.928l832 347.456a32 32 0 0 0 43.744-35.52l-145.76-768a32 32 0 0 0-48.576-21.056l-270.208 171.328a32 32 0 0 0 34.24 54.08l230.464-146.112L885.44 747.52 166.464 447.296zM416 263.904V0a32 32 0 0 0-64 0v278.624a32 32 0 0 0 11.2 24.32L752.192 636a32 32 0 0 0 41.6-48.64L416 263.936z"
                   horiz-adv-x="1024"/>

            <glyph glyph-name="huaban" unicode="&#59699;"
                   d="M498 775C291.224 775 123 606.776 123 400S291.224 25 498 25 873 193.224 873 400 704.776 775 498 775m0 25c220.914 0 400-179.086 400-400s-179.086-400-400-400S98 179.086 98 400 277.086 800 498 800zM645.678 571.982a19 19 0 0 1-3.578 10.138 40.12 40.12 0 0 1-8.942 8.346c-3.576 2.384-7.75 4.77-11.326 7.152-4.77 1.194-8.346 2.386-11.326 2.386-4.172 0-9.538-1.788-15.5-4.174-2.98-1.786-5.96-2.98-8.346-4.172-2.98-1.788-5.96-2.98-8.942-2.98-23.844-3.578-46.5-6.558-67.958-7.75-21.46-2.386-44.112-4.174-66.766-5.962-3.156-0.48-6.348-0.68-9.538-0.6a52.5 52.5 0 0 1-10.134-1.192c-6.556-1.788-9.538-4.77-9.538-8.346 0-7.75 5.96-14.9 19.076-22.056 2.386-1.79 5.96-2.982 10.73-4.174 5.07-1.252 10.28-1.852 15.5-1.788 5.392-0.08 10.78 0.32 16.1 1.192l19.672 2.384a120.64 120.64 0 0 1 15.5 2.384l11.326 1.788c0-20.268 0.6-42.326 1.788-64.978l1.786-66.76 1.192-58.42c0-17.884 0.6-31.596 0.6-39.94 0-5.366-0.6-12.52-1.192-20.864-1.192-8.942-2.386-17.288-4.77-25.634-2.384-8.344-5.96-16.1-10.73-22.056a23.454 23.454 0 0 0-19.076-8.942 35.866 35.866 0 0 0-16.1 4.172 102.078 102.078 0 0 0-19.672 13.116 184.734 184.734 0 0 0-22.056 21.456A150.822 150.822 0 0 0 412 303.726a131.48 131.48 0 0 0-11.328 20.864c-4.174 7.75-5.962 14.306-5.962 19.076 0 2.98 1.192 5.96 3.578 9.538 2.384 3.576 4.172 6.556 6.556 8.942l4.172 4.174 1.784 3.576v2.98a15.8 15.8 0 0 1-1.788 5.96 28.022 28.022 0 0 1-5.364 7.154 42.316 42.316 0 0 1-8.346 5.96c-3.578 1.192-7.154 2.384-10.73 2.384-11.924 0-20.268-4.768-26.23-13.71-5.958-9.536-8.342-19.67-8.342-30.404a42.156 42.156 0 0 1 2.98-16.1 104.614 104.614 0 0 1 7.156-19.076 98.846 98.846 0 0 1 8.94-19.664c3.578-6.558 6.558-11.924 9.538-15.5 13.116-19.076 25.634-33.384 38.152-43.518 11.922-10.73 22.654-19.076 32.788-23.844 9.538-5.96 17.882-9.538 25.036-10.73a90.4 90.4 0 0 1 14.31-1.788c16.692 0 31 2.98 42.326 10.134a70.414 70.414 0 0 1 26.23 25.036 116.5 116.5 0 0 1 13.114 35.768 221.19 221.19 0 0 1 3.578 39.94c0 17.288-0.6 36.96-0.6 59.016l-1.788 66.766-1.192 63.19c-0.6 19.672-0.6 36.364-0.6 50.67a100.492 100.492 0 0 1 14.9 1.192c3.576 0 7.154 0.6 10.73 0.6l10.73 1.192a52.422 52.422 0 0 1 11.92 1.788 54.3 54.3 0 0 1 18.48 5.366c5.972 2.382 8.95 5.962 8.95 11.324z"
                   horiz-adv-x="1024"/>

            <glyph glyph-name="asterisk" unicode="&#59694;"
                   d="M563.456 448.192c39.744 18.432 78.336 37.056 114.624 55.36 36.288 18.56 65.344 32.256 86.784 40.832 21.504 8.384 38.72 12.864 51.776 12.864 21.504 0 40.064-7.04 55.808-21.76C888.192 521.152 896 502.912 896 481.472c0-12.288-3.904-25.216-11.584-38.4-7.616-13.248-15.872-21.76-24.448-25.472-79.488-31.232-167.104-54.208-262.528-68.416 17.344-15.744 38.592-37.184 63.872-63.552 25.28-26.752 38.592-40.832 39.616-42.624 9.344-12.864 22.208-28.928 38.848-48 16.64-19.2 28.16-34.048 34.624-44.864 6.464-10.944 9.728-23.808 9.728-39.232 0-19.712-7.36-37.056-22.208-51.776-14.656-14.848-33.92-22.272-57.344-22.272s-49.6 18.304-79.04 54.528c-29.248 36.224-67.072 101.696-113.28 195.968-46.784-84.864-78.336-141.12-94.208-168.256-16.064-26.88-31.488-47.424-46.208-61.376-14.848-13.824-31.68-20.864-50.88-20.864-22.784 0-41.792 7.808-57.024 23.552-14.784 15.744-22.528 32.704-22.528 50.432 0 16.64 3.008 29.248 9.216 37.76 56.704 76.992 115.776 144.192 177.536 200.576-51.776 8.128-97.92 17.152-138.56 26.88-40.704 10.048-83.968 24.32-129.472 43.52-7.488 3.776-14.656 12.288-21.76 25.472C131.456 458.112 128 470.4 128 481.472c0 21.44 7.808 39.616 23.552 54.016 15.744 14.656 33.728 21.76 54.144 21.76 14.848 0 33.216-4.48 55.488-13.376C283.264 534.848 311.424 521.984 345.6 505.088c34.24-16.96 73.28-35.904 116.992-56.896C454.592 487.04 447.936 531.648 442.688 581.696 437.44 631.936 434.88 666.304 434.88 684.864c0 22.784 7.232 42.176 21.632 58.688C471.168 759.872 489.6 768 512.448 768c22.4 0 40.512-8.128 55.04-24.448 14.592-16.512 21.76-38.144 21.76-65.28 0-7.36-1.216-21.952-3.328-43.968-1.92-21.952-5.248-48.32-9.152-79.36C572.736 523.84 568.256 488.128 563.456 448.192z"
                   horiz-adv-x="1024"/>

            <glyph glyph-name="moren" unicode="&#59695;"
                   d="M512-62.8C265.6-62.8 65.2 137.6 65.2 384S265.6 830.8 512 830.8 958.8 630.4 958.8 384 758.4-62.8 512-62.8z m0 832c-212.4 0-385.2-172.8-385.2-385.2S299.6-1.2 512-1.2 897.2 171.6 897.2 384 724.4 769.2 512 769.2zM512 384m-169.5 0a169.5 169.5 0 1 1 339 0 169.5 169.5 0 1 1-339 0Z"
                   horiz-adv-x="1024"/>

            <glyph glyph-name="J_round_solid" unicode="&#59692;"
                   d="M512-3.5c-213.668 0-387.5 173.832-387.5 387.5S298.332 771.5 512 771.5 899.5 597.668 899.5 384 725.668-3.5 512-3.5zM512 759c-206.776 0-375-168.224-375-375s168.224-375 375-375 375 168.224 375 375-168.224 375-375 375m0 25c220.914 0 400-179.086 400-400S732.914-16 512-16 112 163.086 112 384s179.086 400 400 400zM659.678 555.982a19 19 0 0 1-3.578 10.138 40.12 40.12 0 0 1-8.942 8.346c-3.577 2.384-7.75 4.769-11.326 7.153-4.769 1.192-8.346 2.385-11.326 2.385-4.173 0-9.538-1.788-15.5-4.173-2.981-1.788-5.961-2.981-8.346-4.173-2.981-1.788-5.961-2.981-8.942-2.981-23.845-3.577-46.5-6.557-67.958-7.75-21.461-2.385-44.113-4.173-66.766-5.961a54.549 54.549 0 0 0-9.538-0.6 52.5 52.5 0 0 1-10.134-1.192c-6.557-1.788-9.538-4.769-9.538-8.346 0-7.75 5.961-14.9 19.076-22.057 2.385-1.788 5.961-2.981 10.73-4.173a61.515 61.515 0 0 1 15.5-1.788 91.365 91.365 0 0 1 16.1 1.192l19.672 2.384a120.638 120.638 0 0 1 15.5 2.384l11.326 1.788c0-20.268 0.6-42.325 1.788-64.978l1.785-66.76 1.192-58.42c0-17.884 0.6-31.595 0.6-39.94 0-5.365-0.6-12.519-1.192-20.864-1.192-8.942-2.385-17.288-4.769-25.633s-5.961-16.1-10.73-22.057a23.454 23.454 0 0 0-19.076-8.942 35.866 35.866 0 0 0-16.1 4.173 102.078 102.078 0 0 0-19.672 13.115 184.734 184.734 0 0 0-22.056 21.456A150.822 150.822 0 0 0 426 287.726a131.479 131.479 0 0 0-11.329 20.864c-4.173 7.75-5.961 14.307-5.961 19.076 0 2.981 1.192 5.961 3.577 9.538s4.173 6.557 6.557 8.942l4.172 4.174 1.784 3.576v2.98a15.8 15.8 0 0 1-1.788 5.961 28.023 28.023 0 0 1-5.365 7.153 42.316 42.316 0 0 1-8.346 5.961c-3.577 1.192-7.153 2.384-10.73 2.384-11.923 0-20.268-4.769-26.23-13.711-5.957-9.536-8.341-19.67-8.341-30.404a42.156 42.156 0 0 1 2.981-16.1 104.614 104.614 0 0 1 7.154-19.076 98.846 98.846 0 0 1 8.941-19.664c3.577-6.557 6.557-11.923 9.538-15.5 13.115-19.076 25.633-33.383 38.152-43.517 11.922-10.73 22.653-19.076 32.787-23.845q14.307-8.942 25.037-10.73A90.4 90.4 0 0 1 502.9 184c16.691 0 31 2.981 42.325 10.134a70.414 70.414 0 0 1 26.23 25.037 116.5 116.5 0 0 1 13.115 35.768 221.19 221.19 0 0 1 3.577 39.94c0 17.288-0.6 36.96-0.6 59.016l-1.788 66.766-1.192 63.189c-0.6 19.672-0.6 36.364-0.6 50.671a100.492 100.492 0 0 1 14.9 1.192c3.577 0 7.154 0.6 10.73 0.6l10.73 1.192a52.422 52.422 0 0 1 11.922 1.788 54.3 54.3 0 0 1 18.48 5.365c5.971 2.382 8.949 5.962 8.949 11.324z"
                   horiz-adv-x="1024"/>

            <glyph glyph-name="chehuiqianyue" unicode="&#59688;"
                   d="M383.1-38.7h-272v832h800v-416h-64v352h-672v-704h208zM303.1 569.3h416v-64h-416zM304 393.3h224v-64H304zM791.1-34.6h-192v64h192c48.5 0 88 39.5 88 88s-39.5 88-88 88h-144v64h144c83.8 0 152-68.2 152-152s-68.2-152-152-152zM732.3 101.6L596.6 237.4l135.7 135.7 45.3-45.2-90.5-90.5 90.5-90.5z"
                   horiz-adv-x="1024"/>

            <glyph glyph-name="daoru3" unicode="&#59689;"
                   d="M135.63636347 395.65909131v-309.19090957c0-43.52727305 35.30454521-78.83181826 78.83181827-78.83181827h595.06363652a78.83181826 78.83181826 0 0 1 78.83181826 78.83181827V681.53181826A78.83181826 78.83181826 0 0 1 809.53181826 760.36363653h-284.27727305a32.72727305 32.72727305 0 0 0 0 65.45454521h284.27727305A144.28636348 144.28636348 0 0 0 953.81818174 681.53181826v-595.06363652a144.28636348 144.28636348 0 0 0-144.28636348-144.28636348H214.46818174A144.28636348 144.28636348 0 0 0 70.18181826 86.46818173999998v309.19090957a32.72727305 32.72727305 0 1 0 65.45454522 0zM101.15 719.4954547899999l15.13636347-0.81818174a423.9 423.9 0 0 0 396.24545479-358.56818174 32.72727305 32.72727305 0 0 1 64.67727305 9.98181738A489.35454521 489.35454521 0 0 1 119.84545479 784.05l-15.17727305 0.81818174A32.72727305 32.72727305 0 0 1 101.15 719.45454521zM542.96818174 370.45909130999996l-139.90909043 76.45909043a32.72727305 32.72727305 0 0 1-31.37727305-57.43636348l149.89090869-81.94090957a53.18181826 53.18181826 0 0 1 70.15909131 17.79545479l93.68181827 144.81818173a32.72727305 32.72727305 0 0 1-54.98181827 35.59090958l-87.46363652-135.28636348z"
                   horiz-adv-x="1024"/>

            <glyph glyph-name="daoru4" unicode="&#59690;"
                   d="M871.616 820.544c-86.912-92.288-221.76-185.6-213.376-350.016A156.16 156.16 0 0 1 640 448l99.712 1.536a21.568 21.568 0 0 0 16.768-34.752l-177.984-213.376a20.992 20.992 0 0 0-29.44-3.52 20.672 20.672 0 0 0-3.52 3.52L354.368 414.144a21.568 21.568 0 0 0 16.832 35.392L448 448c10.624 0 2.56 9.6 4.032 20.096 59.968 282.88 394.432 354.816 419.584 352.448zM811.648-64H192c-109.44-6.976-124.48 75.648-128 128l0.576 640.384a115.52 115.52 0 0 0 128 128C84.992 831.36 448 832 448 832a32 32 0 1 0 0-64H192.448a52.096 52.096 0 0 1-64-64v-606.784c-0.96-48.256 14.912-96.256 63.552-97.216h640a61.696 61.696 0 0 1 64 64l-0.512 257.152a32 32 0 0 0 64 0L960 64a115.84 115.84 0 0 0-128-128z"
                   horiz-adv-x="1024"/>

            <glyph glyph-name="zu" unicode="&#59685;"
                   d="M155.5849273-75.13043436999999v312.04173843h83.47826156V8.347826250000026H866.31884042V517.56521719h-220.21565156V759.65217375H239.31362323v-327.36h-83.47826062V843.13043437h549.07826062l245.09217375-247.42956468V-75.13043436999999z m573.91304343 676.17391218h97.79478281l-97.79478281 98.71304438z m-390.80347781-385.75304344l74.08695656 74.08695657H31.5362323v83.47826156h381.24521718L338.73623229 446.94260906l38.56695657 38.65043438 115.86782531-115.86782625 38.65043531-38.608695-38.65043531-38.56695657-115.86782531-115.86782625z m115.32521719 115.32521813l0.45913031 0.50086969-0.45913031 0.45913031z"
                   horiz-adv-x="1024"/>

            <glyph glyph-name="js-square" unicode="&#59686;"
                   d="M56.32252839 839.67747161v-911.35494322h911.35494322V839.67747161H56.32252839z m82.85044939-82.85044939h745.65404444v-745.65404444H139.17297778V756.82702222z m548.63567582-331.40179753c-59.03094518 0-97.18357712-37.77980492-97.18357714-87.82147634 0-54.26704435 31.89742302-80.24066023 79.86783321-100.663296l16.57008988-7.16656387c30.3646897-13.38034757 48.42608766-21.16828981 48.42608765-43.99358863 0-19.26272948-17.68857093-33.09875453-45.23634535-33.09875452-32.64307707 0-51.20157772 17.31574391-65.36900457 40.55529497l-54.26704434-31.06891852c19.22130427-38.56688418 59.36234699-68.14449461 121.16878223-68.14449461 62.96634153 0 110.19109769 32.64307707 110.19109766 92.4611015 0 55.92405333-31.89742302 80.73776293-88.6085556 104.72296802l-16.48723944 7.12513865c-28.70768071 12.5932683-40.92812199 20.83688802-40.92812198 40.51386975 0 16.15583763 12.17901605 28.74910594 31.89742301 28.74910593 19.26272948 0 31.40032032-8.28504494 42.83368233-28.74910593l52.03008221 33.43015633c-22.03821954 38.52545897-52.40290924 53.14856329-94.86376454 53.14856327z m-242.33756445-3.97682158v-226.30600248c0-33.0573293-14.16742685-41.63235082-35.83281937-41.63235082-22.78387358 0-32.64307707 15.70016016-42.87510755 34.21723561l-54.26704434-32.72592752c15.74158539-33.43015632 46.76907867-60.97793075 99.91764195-60.97793073C471.40327981 94.02342716999999 512 125.50659791999999 512 194.43817181999998v227.01023129h-66.48748563z"
                   horiz-adv-x="1024"/>

            <glyph glyph-name="qingkong" unicode="&#59687;"
                   d="M827.55514344 841.0096875c79.58361094-45.96141 108.08589656-145.56410062 63.73115531-222.53419875L798.463745 457.7016l77.56992094-44.80460906c55.09799344-31.75846687 74.81716313-100.75949156 44.06554125-154.04730657L746.8254425-41.21158968999998c-30.76233281-53.287815-100.36318031-70.69338188-155.46117375-38.89207125l-443.36532937 255.99573281c-55.09799344 31.81202156-74.87071875 100.81304719-44.10838594 154.04730657L277.15360719 630.01136344c30.74091 53.29852594 100.36318031 70.75764937 155.45046281 38.89207125L510.22754563 624.06669281l92.83326468 160.79531156C647.43697438 861.85352438 747.9715325 886.98180844 827.55514344 841.0096875z m-548.40926813-361.07180531L170.42802219 291.57215155999995a37.778115 37.778115 0 0 1 14.70636562-51.33839062l62.91711-36.33211406 61.47110907 102.82673718a37.62815906 37.62815906 0 0 0 50.67430218 13.54956563l1.30675594-0.70693406a36.97478156 36.97478156 0 0 0 14.25649875-50.3422575c-0.18208875-0.32133375-0.36417844-0.6426675-0.55697812-0.95328938l-61.21404188-102.51611531 175.82301-101.56282594 63.57048844 106.38282938a37.62815906 37.62815906 0 0 0 50.68501312 13.53885375l1.296045-0.69622313a36.97478156 36.97478156 0 0 0 14.25649875-50.34225656c-0.17137781-0.32133375-0.36417844-0.6426675-0.55697812-0.96400125l-63.32413219-105.97580625 72.7606275-41.99829563a37.778115 37.778115 0 0 1 51.83110313 12.94974188l112.94874468 195.69213562z m390.34529157 266.54618437L539.64027688 521.43275531l-144.16094344 83.19325781a37.78882594 37.78882594 0 0 1-51.78825844-12.94974281L316.54910094 544.80441562l514.13368875-287.05797656 22.87894969 39.54544969a37.778115 37.778115 0 0 1-14.69565469 51.32767969l-144.07525594 83.19325781 129.95800125 225.05131125c23.88579469 41.4413175 8.56889438 95.08259906-34.27557937 119.82528281S693.49478375 787.94680594 669.49116688 746.48406656z"
                   horiz-adv-x="1024"/>

            <glyph glyph-name="jiaosequnti" unicode="&#59684;"
                   d="M663.2 448.8c84-10.4 153.6 60.8 142.4 144-7.2 57.6-52.8 103.2-109.6 110.4-84 10.4-154.4-60-143.2-144 7.2-57.6 53.6-103.2 110.4-110.4z m-326.4 0c84-10.4 153.6 60.8 142.4 144-7.2 57.6-53.6 103.2-110.4 110.4-84 10.4-154.4-60-143.2-144 8-57.6 53.6-103.2 111.2-110.4z m11.2-64.8C253.6 384 64 335.2 64 238.4V80c0-8.8 7.2-16 16-16h536c8.8 0 16 7.2 16 16V238.4C632 335.2 442.4 384 348 384z m322.4 0c-12 0-25.6-0.8-40-2.4 48-34.4 81.6-81.6 81.6-143.2V80c0-8.8 7.2-16 16-16h216c8.8 0 16 7.2 16 16V238.4C960 335.2 767.2 384 670.4 384z"
                   horiz-adv-x="1024"/>

            <glyph glyph-name="zhucetianjiahaoyou" unicode="&#59667;"
                   d="M320 588.8c6.4 95.2 84.8 172.8 180 178.4 111.2 6.4 204-81.6 204-192 0-105.6-85.6-192-192-192-110.4 0-199.2 93.6-192 205.6zM575.2 128c0 72.8 40.8 136.8 100.8 168.8C616 312 556 320 511.2 320 384 320 128 256 128 128v-96c0-17.6 14.4-32 32-32h464c-30.4 33.6-48.8 78.4-48.8 128z m320.8 32h-96V256h-64v-96H640v-64h96v-96h64v96h96v64z"
                   horiz-adv-x="1024"/>

            <glyph glyph-name="lixiaolizhishenqing" unicode="&#59668;"
                   d="M682.666667-42.66666699999996H42.666667c-25.6 0-42.666667 17.066667-42.666667 42.666667v85.333333c0 119.466667 93.866667 213.333333 213.333333 213.333334h298.666667c119.466667 0 213.333333-93.866667 213.333333-213.333334v-85.333333c0-25.6-17.066667-42.666667-42.666666-42.666667zM85.333333 42.66666699999996h554.666667v42.666666c0 72.533333-55.466667 128-128 128H213.333333c-72.533333 0-128-55.466667-128-128v-42.666666zM362.666667 384c-119.466667 0-213.333333 93.866667-213.333334 213.333333s93.866667 213.333333 213.333334 213.333334 213.333333-93.866667 213.333333-213.333334-93.866667-213.333333-213.333333-213.333333z m0 341.333333c-72.533333 0-128-55.466667-128-128s55.466667-128 128-128 128 55.466667 128 128-55.466667 128-128 128zM981.333333 298.66666699999996c-12.8 0-21.333333 4.266667-29.866666 12.8l-213.333334 213.333333c-17.066667 17.066667-17.066667 42.666667 0 59.733333s42.666667 17.066667 59.733334 0l213.333333-213.333333c17.066667-17.066667 17.066667-42.666667 0-59.733333-8.533333-8.533333-17.066667-12.8-29.866667-12.8zM768 298.66666699999996c-12.8 0-21.333333 4.266667-29.866667 12.8-17.066667 17.066667-17.066667 42.666667 0 59.733333l213.333334 213.333333c17.066667 17.066667 42.666667 17.066667 59.733333 0s17.066667-42.666667 0-59.733333l-213.333333-213.333333c-8.533333-8.533333-17.066667-12.8-29.866667-12.8z"
                   horiz-adv-x="1024"/>

            <glyph glyph-name="quxiaoguanlian" unicode="&#59669;"
                   d="M116.28 832.36l844.396-844.394-50.956-50.956L65.325 781.405zM192.037 256.035h-64.012V618.824l64.012-63.84zM192.037 319.954h64.012v-63.919h-64.012zM384.075 0.361h-64.013V426.959l64.013-64.055zM746.41 0.361H384.075v63.918h298.417zM704.137 704.216H341.833l-64.146 63.794h426.45zM704.137 341.614l-64.013 64.188V704.216h64.013zM768.149 512.21h128.025v-64.419H768.149zM896.174 149.742l-64.012 64.012V447.791h64.012z"
                   horiz-adv-x="1024"/>

            <glyph glyph-name="shujukanban" unicode="&#59670;"
                   d="M979.2 737.152a32 32 0 0 1-38.4 23.936l-166.848-38.656a32 32 0 0 1-15.808-53.408l36.416-37.664L600 457.792l-101.024 95.68a32 32 0 0 1-45.152-1.152L237.088 325.056A64 64 0 1 1 288 262.4c0 6.944-1.376 13.472-3.424 19.712l193.536 202.944 99.232-93.952a32 32 0 0 1 43.296-0.64l218.4 194.816 41.504-42.976a32 32 0 0 1 53.92 13.92l44.448 165.408a31.84 31.84 0 0 1 0.288 15.52zM928 445.536a32 32 0 0 1-32-32V160a32 32 0 0 0-32-32H160a32 32 0 0 0-32 32V736a32 32 0 0 0 32 32h530.656a32 32 0 0 1 0 64H160a96 96 0 0 1-96-96v-576a96 96 0 0 1 96-96h704a96 96 0 0 1 96 96V413.536a32 32 0 0 1-32 32zM912 0H112a32 32 0 0 1 0-64h800a32 32 0 0 1 0 64z"
                   horiz-adv-x="1024"/>

            <glyph glyph-name="guanlian2" unicode="&#59671;"
                   d="M686.3 265.7V382.8c0 19.9-16.1 36-36 36s-36-16.1-36-36v-101.1H136.7V759.3h477.6v-98.8c0-19.9 16.1-36 36-36s36 16.1 36 36V775.3c0 30.9-25.1 56-56 56H120.7c-30.9 0-56-25.1-56-56v-509.6c0-30.9 25.1-56 56-56h509.6c30.9 0 56 25.1 56 56zM903.8 558.2H394.2c-30.9 0-56-25.1-56-56v-118c0-19.9 16.1-36 36-36s36 16.1 36 36v102h477.6v-477.6H410.2V111.4c0 19.9-16.1 36-36 36s-36-16.1-36-36v-118.7c0-30.9 25.1-56 56-56h509.6c30.9 0 56 25.1 56 56V502.2c0 30.9-25.1 56-56 56z"
                   horiz-adv-x="1024"/>

            <glyph glyph-name="zhanghuqiehuan" unicode="&#59672;"
                   d="M960 79.744v-54.272l-100.992-127.744h-114.496v10.048l64.384 81.6H575.872v90.368H960zM467.264 378.56l24.832-0.384c47.488-0.96 90.816-4.864 129.6-11.328L553.6 283.52c-14.016 1.28-28.608 2.176-43.968 2.752l-19.2 0.576-23.168 0.32-24.192-0.32c-88.064-1.792-156.928-14.208-207.808-34.24-31.36-12.352-52.8-26.432-62.976-36.992l-3.2-3.776-2.56-3.52c-5.632-9.6-9.536-26.624-10.368-50.816l-0.192-10.752v-127.872H64V146.56c0 39.168 5.44 71.552 18.56 98.944l6.208 11.392 5.312 7.744c45.952 60.928 156.288 106.112 325.888 112.896l21.504 0.64 25.792 0.384z m324.032-42.816v-9.984l-64.384-81.6H960v-90.432H575.872v54.336l100.992 127.68h114.432zM466.624 857.728c108.864 0 197.12-87.68 197.12-195.84v-65.28a196.48 196.48 0 0 0-197.12-195.904 196.48 196.48 0 0 0-197.12 195.84v65.28A196.48 196.48 0 0 0 466.688 857.792z m0-91.392c-58.048 0-105.088-46.72-105.088-104.448v-65.28c0-57.728 47.04-104.512 105.088-104.512 58.112 0 105.152 46.72 105.152 104.448v65.28c0 57.728-47.04 104.512-105.152 104.512z"
                   horiz-adv-x="1024"/>

            <glyph glyph-name="renyuanguanli" unicode="&#59683;"
                   d="M822.314667 283.733333a34.048 34.048 0 0 0 29.738666-17.152l82.773334-144.853333c6.144-10.666667 6.101333-23.893333-0.128-34.645333l-84.053334-145.621334a34.773333 34.773333 0 0 0-29.866666-17.408l-166.912-0.725333a34.048 34.048 0 0 0-29.738667 17.152l-82.816 144.896a34.773333 34.773333 0 0 0 0.128 34.602667l84.053333 145.621333a34.773333 34.773333 0 0 0 29.909334 17.450667l166.912 0.725333zM512 294.528c15.402667 0 32.981333-1.28 52.736-3.797333l-97.109333-161.706667a48.341333 48.341333 0 0 1-4.266667-41.258667l2.474667-5.546666L509.013333 0H170.666667v149.76c0 39.936 23.722667 74.965333 57.984 85.504v0.085333c128.128 39.466667 222.592 59.136 283.349333 59.136z m270.08-114.688l-87.381333-0.426667-43.946667-76.16 43.306667-75.861333 87.381333 0.426667 43.946667 76.16-43.306667 75.861333zM512 768a206.805333 206.805333 0 0 0 206.762667-206.848A206.805333 206.805333 0 1 0 512 768z"
                   horiz-adv-x="1024"/>

            <glyph glyph-name="tiaoxingma" unicode="&#59666;"
                   d="M64 768.192l115.84 0 0-768.384-115.84 0 0 768.384ZM217.6 768.192l54.464 0 0-768.384-54.464 0 0 768.384ZM342.912 768.192l68.544 0 0-768.384-68.544 0 0 768.384ZM539.136 768.192l118.272 0 0-768.384-118.272 0 0 768.384ZM688.064 768.192l44.992 0 0-768.384-44.992 0 0 768.384ZM803.968 768.192l156.032 0 0-768.384-156.032 0 0 768.384Z"
                   horiz-adv-x="1024"/>

            <glyph glyph-name="yonghuguanli" unicode="&#59665;"
                   d="M283.85 601.35c0 90.9 75.15 166.05 166.05 166.05s166.05-75.15 166.05-166.05-75.15-166.05-166.05-166.05-166.05 75.15-166.05 166.05zM177.65 9.600000000000023c-27-0.45-49.5 21.15-49.95 48.6v1.35c0 166.05 128.7 303.75 291.6 319.5H453.5c37.8 3.15 90.9 12.6 118.8 37.8l12.6 9.45c53.1 44.1 84.6 106.65 84.6 175.5 0 122.4-100.35 222.3-225.45 222.3-116.1 0-216-100.35-216-222.3 0-68.85 31.05-131.4 84.6-175.5l15.75-9.45-15.75-6.3C168.2 354.29999999999995 71.45 216.60000000000002 71.45 60c-0.45-58.5 46.35-106.2 104.4-106.65H462.5c9.45 0 24.75 9.45 24.75 28.35 0 22.05-15.75 28.35-24.75 28.35H177.65z m723.15 125.1c-46.8-6.3-81.45-44.1-81.45-93.6 0-9.45 3.15-22.05 6.3-28.35l-40.5-22.05-15.75 15.75c-18.45 12.6-34.2 18.45-53.1 18.45-15.75 0-34.2-6.3-53.1-18.45-6.3-6.3-12.6-9.45-15.75-15.75l-37.8 22.05c2.7 6.3 6.3 18.45 6.3 28.35 0 47.25-34.65 87.3-81.45 93.6 0 6.3-3.15 18.45-3.15 31.5 0 9.45 3.15 22.05 3.15 31.5 46.8 6.3 81.45 44.1 81.45 94.05 0 9.45-2.7 22.05-6.3 28.35l40.5 22.05c2.7-3.15 9-9.45 15.75-12.6 18.45-12.6 34.2-18.45 49.95-18.45s31.05 6.3 49.95 18.45c6.3 6.3 12.6 9.45 15.75 12.6l40.5-22.05c-2.7-6.3-6.3-18.45-6.3-28.35 0-47.25 34.65-87.3 81.9-94.05 0-6.3 2.7-18.45 2.7-31.5 4.05-9.45 0.45-22.05 0.45-31.5z m44.1 78.3c-3.15 15.75-15.75 28.35-28.35 28.35h-3.15c-28.35 0-49.95 22.05-49.95 49.95 0 6.3 2.7 15.75 2.7 18.45 6.3 15.75 0 34.2-12.6 44.1l-56.25 31.5H782c-9 0-22.05-2.7-28.35-12.6-6.3-6.3-24.75-22.05-37.8-22.05-12.6 0-31.5 15.75-40.5 22.05-6.3 6.3-15.75 12.6-28.35 12.6-6.3 0-9.45 0-12.6-2.7l-59.4-31.5c-12.6-9.45-18.45-28.35-12.6-44.1 0 0 2.7-9.45 2.7-18.45 0.45-27-21.15-49.5-48.15-49.95H512c-12.6 0-24.75-12.6-28.35-28.35 0-3.15-6.3-24.75-6.3-46.8 0-18.45 2.7-44.1 6.3-46.8 3.15-15.75 15.75-28.35 28.35-28.35h3.15c28.35 0 49.95-22.05 49.95-49.95 0-6.3-2.7-15.75-2.7-18.45-6.3-15.75 0-34.2 12.6-44.1l56.25-31.5c6.3 3.15 9.45 3.15 15.75 3.15 9.45 0 22.05 2.7 28.35 12.6 6.3 6.3 24.75 24.75 40.5 24.75 12.6 0 34.2-15.75 40.5-24.75 6.3-6.3 15.75-12.6 28.35-12.6 6.3 0 9.45 0 15.75 2.7l56.25 31.5c12.6 9.45 18.45 28.35 12.6 44.1 0 0-2.7 9-2.7 18.45 0 28.35 22.05 49.95 49.95 49.95h2.7c12.6 0 24.75 12.6 28.35 28.35 0 0 6.3 24.75 6.3 46.8-6.3 15.3-9 40.5-9 43.65z m-228.6-87.3c-22.05 0-40.5 18.45-40.5 40.5s18.45 40.5 40.5 40.5 40.5-18.45 40.5-40.5c0.45-22.05-18.9-40.5-40.5-40.5z m15.3 125.1c-59.85 12.6-112.95-40.5-100.35-103.05 6.3-34.2 34.2-62.55 68.85-68.85 59.85-12.6 112.95 40.5 100.35 100.35-5.85 36.9-34.2 65.25-68.85 71.55z"
                   horiz-adv-x="1025"/>

            <glyph glyph-name="shiyanqiju-" unicode="&#59663;"
                   d="M866.9 68.2L623.5 489.7v323H400.4v-323L157.1 68.2c-13.6-23.6-13.6-51.7 0-75.3 13.6-23.6 38-37.7 65.2-37.7h579.4c27.2 0 51.6 14.1 65.2 37.7 13.6 23.6 13.6 51.7 0 75.3zM440.7 478.9V772.5h142.6v-293.6l182.6-316.2-502.1 9.6 176.9 306.6zM461.6 200.2c47.1 0 85.4 38.3 85.4 85.4S508.7 371 461.6 371s-85.4-38.3-85.4-85.4 38.4-85.4 85.4-85.4zM515.2 413.2c31.5 0 57.2 25.6 57.2 57.2 0 31.5-25.6 57.2-57.2 57.2-31.5 0-57.2-25.6-57.2-57.2 0-31.5 25.7-57.2 57.2-57.2z"
                   horiz-adv-x="1024"/>

            <glyph glyph-name="hrms_line" unicode="&#59664;"
                   d="M111.92156878 791.2254903099999A21.6 21.6 0 0 0 132.30392151 812.66666667h50.13529453a20.43529453 20.43529453 0 0 0 14.55882276-6.40588271 21.07058818 21.07058818 0 0 0 5.71764726-15.03529365V442.60784303h411.3529418V791.2254903099999A21.01764727 21.01764727 0 0 0 634.3980388 812.66666667h50.02941182a21.6 21.6 0 0 0 20.32941181-21.44117637V-9.509804229999986a21.6 21.6 0 0 0-20.32941181-21.44117637h-50.02941182a20.43529453 20.43529453 0 0 0-14.55882276 6.3529418 21.07058818 21.07058818 0 0 0-5.71764726 15.08823458V349.43137214H202.3980388v-358.99411729a21.01764727 21.01764727 0 0 0-20.27647002-21.44117636H132.2509806a21.6 21.6 0 0 0-20.27647091 21.44117636V791.2254903099999z m667.58823544 21.17647089h211.39411729c128.22352911 0 232.83529453-126.21176455 232.83529453-261.15882364-2.2764709-105.77647089-65.11764727-200.43529453-160.78235361-242.25882362l150.19411817-313.6764709c7.51764727-14.71764727 8.04705908-29.64705908-7.51764727-29.64705908l-62.20588271-2.7a23.13529453 23.13529453 0 0 0-23.29411729 16.94117724l-158.34705908 319.4470582h-181.42941182l-0.84705821 89.62941182h190.53529366c88.99411729 3.49411729 160.51764727 69.56470547 161.31176455 159.98823545 0 86.4-64.53529453 169.14705908-161.31176455 169.14705908H779.50980422V812.3490194z"
                   horiz-adv-x="1325"/>

            <glyph glyph-name="xiaoshoudingdan" unicode="&#59659;"
                   d="M877.625 822.75h-731.25C107 822.75 73.25 789 73.25 749.625v-731.25c0-39.375 33.75-73.125 73.125-73.125h731.25c39.375 0 73.125 33.75 73.125 73.125v731.25c0 39.375-33.75 73.125-73.125 73.125z m-129.375-455.625c-16.875-112.5-118.125-202.5-236.25-202.5s-219.375 90-236.25 202.5c-22.5 5.625-39.375 28.125-39.375 50.625 0 28.125 22.5 56.25 56.25 56.25s56.25-22.5 56.25-56.25c0-22.5-11.25-45-33.75-50.625 16.875-95.625 101.25-168.75 196.875-168.75s185.625 73.125 196.875 168.75c-16.875 11.25-28.125 28.125-28.125 50.625 0 28.125 22.5 56.25 56.25 56.25 28.125 0 56.25-22.5 56.25-56.25-5.625-22.5-22.5-45-45-50.625z m151.875 326.25c0-22.5-16.875-39.375-39.375-39.375H163.25c-22.5 0-39.375 16.875-39.375 39.375v39.375c0 22.5 16.875 39.375 39.375 39.375h697.5c22.5 0 39.375-16.875 39.375-39.375v-39.375z"
                   horiz-adv-x="1024"/>

            <glyph glyph-name="yinhang" unicode="&#59660;"
                   d="M936.74615573 605.0902901300001L540.9847296 778.45384427c-0.43586027 0.21793067-0.98068587 0.43586027-1.41654613 0.65379093-2.72412907 1.6344768-14.38339947 8.0634208-27.02335787 8.6082464h-1.4165472c-12.74892267-0.65379093-24.2992288-6.9737696-27.13232213-8.6082464-0.43586027-0.21793067-0.8717216-0.5448256-1.4165472-0.65379093L87.68970453 605.0902901300001c-6.9737696-2.72412907-11.1144448-9.69789867-11.1144448-16.56270293v-20.9213088c0-7.19170027 5.77515307-12.96685333 12.96685227-12.96685333h42.7143392c5.8841184 0 11.00548053-3.81378027 12.530992-9.479968 5.3392928-20.3764832 28.00404373-19.17786667 31.59989333-18.959936h670.13567467c3.5958496-0.32689493 26.2606016-1.52551253 31.59989333 18.959936 1.52551253 5.66618773 6.64687467 9.479968 12.53099307 9.479968h42.71433813c7.19170027 0 12.96685333 5.77515307 12.96685334 12.96685333v19.8316576c0 0.65379093 0.10896533 1.4165472 0.21793066 2.07033707 0.76275627 6.428944-3.26895467 12.20409707-9.806864 15.58201706z m-28.439904-544.60782186H116.02064427c-30.4012768 0-29.74748587-29.74748587-29.74748694-29.74748587v-36.8302208c0-7.19170027 5.77515307-12.96685333 12.96685334-12.96685227h825.73790933c7.19170027 0 12.96685333 5.77515307 12.96685227 12.96685227v36.8302208c0.10896533 0 0.8717216 29.74748587-29.63852054 29.74748587zM201.88518187 482.72242667v-335.06783787h-33.88816107c-25.06198507 0-28.54886933-23.7544032-28.98473067-28.33093867 0-0.43586027-0.10896533-0.8717216-0.10896426-1.19861653v-14.8192608c0-7.19170027 5.77515307-12.96685333 12.96685226-12.96685333h722.00308587c7.19170027 0 12.96685333 5.77515307 12.96685333 12.96685333v14.8192608c0 0.43586027 0 0.8717216-0.10896533 1.19861653-0.43586027 4.57653653-3.9227456 28.33093867-28.9847296 28.33093867h-33.88816213V482.72242667c0 7.19170027-5.77515307 12.96685333-12.96685334 12.96685226h-83.24937493c-7.19170027 0-12.96685333-5.77515307-12.96685227-12.96685226v-335.06783787h-66.46874133V482.72242667c0 7.19170027-5.77515307 12.96685333-12.96685333 12.96685226h-82.595584c-7.19170027 0-12.96685333-5.77515307-12.96685334-12.96685226v-335.7216288h-53.93774933V482.72242667c0 7.19170027-5.77515307 12.96685333-12.96685227 12.96685226h-82.595584c-7.19170027 0-12.96685333-5.77515307-12.96685333-12.96685226v-335.06783787h-66.46874133V482.72242667c0 7.19170027-5.77515307 12.96685333-12.96685334 12.96685226h-82.595584c-7.5185952 0-13.29374827-5.77515307-13.29374826-12.96685226z m0 12.96685226"
                   horiz-adv-x="1024"/>

            <glyph glyph-name="yunshu" unicode="&#59662;"
                   d="M895.87374837 163.06546788000003a138.13931551 138.13931551 0 0 1-270.64480044 0h-198.84107853a138.13931551 138.13931551 0 0 1-270.64480175 0H125.36456912a55.23363335 55.23363335 0 0 0-55.23363206 55.23363336v138.08408274h607.5699617v187.93243557a55.23363335 55.23363335 0 0 0 79.37073052 49.71026963l165.70089875-80.50302041A55.23363335 55.23363335 0 0 0 953.86906294 463.81259914V218.29910124000003a55.23363335 55.23363335 0 0 0-55.23363206-55.23363336h-2.76168251zM125.36456912 715.4017975300001h441.86906423a55.23363335 55.23363335 0 0 0 55.23363206-55.23363335v-248.55134816H70.13093706v248.55134816a55.23363335 55.23363335 0 0 0 55.23363206 55.23363335z m165.70089876-662.80359506a82.85044939 82.85044939 0 1 1 0 165.70089877 82.85044939 82.85044939 0 0 1 0-165.70089877z m469.48588027 0a82.85044939 82.85044939 0 1 1 0 165.70089877 82.85044939 82.85044939 0 0 1 0-165.70089877z"
                   horiz-adv-x="1024"/>

            </font>
</defs>
</svg>
